Интеллигентный торрент-трекер
canvas not supported
Нас вместе: 4 249 472

David Crosby - Sky Trails (2017) [FLAC|Lossless|tracks + .cue] <Acoustic, Rock, Singer-Songwriter>


 
 
RSS
Начать новую тему   Ответить на тему    Торрент-трекер NNM-Club -> Rock, Alternative, Punk, Metal -> Rock (Lossless)
Автор Сообщение
zapahgary ®
Стаж: 7 лет 6 мес.
Сообщений: 181
Ratio: 65,098
Поблагодарили: 2650
94.36%
russia.gif
David Crosby - Sky Trails (2017)
Жанр: Acoustic, Rock, Singer-Songwriter
Издание: BMG - 4050538286458
Продолжительность: 00:50:29

Кодек: FLAC
Битрейт: Lossless
Тип рипа: tracks + .cue

Треклист:
01. She's Got To Be Somewhere (04:47)
02. Sky Trails (04:51)
03. Sell Me A Diamond (05:29)
04. Before Tomorrow Falls On Love (03:52)
05. Here It's Almost Sunset (03:54)
06. Capitol (06:57)
07. Amelia (05:39)
08. Somebody Home (04:39)
09. Curved Air (04:45)
10. Home Free (05:41)
foobar2000 1.3.16 / Замер динамического диапазона (DR) 1.1.1
Дата отчёта: 2017-11-29 10:20:08

--------------------------------------------------------------------------------
Анализ: David Crosby / Sky Trails
--------------------------------------------------------------------------------

DR Пики RMS Продолжительность трека
--------------------------------------------------------------------------------
DR9 -0.09 дБ -11.06 дБ 4:47 01-She's Got To Be Somewhere
DR10 -0.10 дБ -13.15 дБ 4:51 02-Sky Trails
DR9 -0.09 дБ -11.45 дБ 5:29 03-Sell Me A Diamond
DR13 -1.62 дБ -16.95 дБ 3:52 04-Before Tomorrow Falls On Love
DR10 -0.09 дБ -11.67 дБ 3:54 05-Here It's Almost Sunset
DR10 -0.09 дБ -12.03 дБ 6:57 06-Capitol
DR11 -0.10 дБ -14.20 дБ 5:39 07-Amelia
DR11 -0.10 дБ -14.89 дБ 4:39 08-Somebody Home
DR9 -0.09 дБ -12.50 дБ 4:45 09-Curved Air
DR12 -0.10 дБ -14.74 дБ 5:41 10-Home Free
--------------------------------------------------------------------------------

Количество треков: 10
Реальные значения DR: DR10

Частота: 44100 Гц
Каналов: 2
Разрядность: 16
Битрейт: 667 кбит/с
Кодек: FLAC
================================================================================
YouTube
Время раздачи: 24/7 (круглосуточно)


Поглощение/вытеснение
Только с согласия релизера

Bigbeer
[NNM-Club.name]_David Crosby - Sky Trails (2017)(FLAC)(CD).torrent
 Торрент:   Зарегистрирован
 
Зарегистрируйтесь и скачайте торрент!
21,9 KB
Free Leech
Примагнититься
 Зарегистрирован:   29 Ноя 2017 10:38:07
 Размер:   268 MB  (
 Рейтинг:    (Голосов: 1)
 Поблагодарили:   29
 Проверка:   Оформление проверено модератором 29 Ноя 2017 15:03:44
Как cкачать  ·  Как раздать  ·  Правильно оформить  ·  Поднять ратио!  
Показать сообщения:   
Начать новую тему   Ответить на тему    Торрент-трекер NNM-Club -> Rock, Alternative, Punk, Metal -> Rock (Lossless) Часовой пояс: GMT + 3
Страница 1 из 1