Интеллигентный торрент-трекер
canvas not supported
Нас вместе: 4 250 838

Robomasters / Робомастера [2017, TV, 4 из 6] HDTV 720p Raw+Rus


 
 
RSS
Начать новую тему   Ответить на тему    Торрент-трекер NNM-Club -> Аниме с озвучкой -> Онгоинги с озвучкой
Автор Сообщение
Ampho_DnB ®
RG Аниме
Uploader 100+
 
Стаж: 5 лет 10 мес.
Сообщений: 2735
Ratio: 187,521
Поблагодарили: 72408
100%
Откуда: дует?
roody.gif
Robomasters / Робомастера
Жанр: школа, приключения
Тип: TV-сериал
Продолжительность: 4 из 6 эпизодов по 25 минут
Выпуск: c 13.10.2017 по 17.11.2017
Сценарий: Ямасита Кэнъити
Режиссер: Ямамото Ясутака
Производство: Gonzo Digimation, DandeLion Animation Studio
Информационные ссылки: AniDB || World Art || MAL
Релиз подготовлен студией Kansai
  • Тип озвучки: Многоголосая, закадровая

Описание:
Робомастера - это ежегодное соревнование роботов, где участвуют команды начинающих конструкторов. Они проектируют и собирают роботов следующего поколения, которые умеют выполнять различные сложные задачи и даже владеют навыками рукопашного боя. Это соревнование проходит в Китае, его учредителем является китайская компания, занимающаяся производством квадрокоптеров. Оно стало настолько популярным, что на его основе решили снять аниме.

Весной, когда студенты поступают в университет, активизируются и главы клубов, которые пытаются заманить к себе первокурсников. Охота открыта и на Тантана, но он полностью посвятил себя модернизации собственного дрона КАКА. Тантан проводит опыты на своём дроне и пытается научить его ловить фрисби. Однажды, во время одной из тренировок с КАКА, ветер подхватывает фрисби, и тот врезается в проходившую мимо девушку. Этот забавный случай становится важным для Тантана, ведь его сердце, ранее посвящённое лишь механизмам, теперь открывается и для живого человека.
Качество: HDTVRip | Энкод: Leopard-Raws
Язык озвучки: Японский и Русский
Формат: MKV
Видео: x264, 1280x720, ~3 585 kbps, 23.976 fps
Аудио: AAC, 192 kbps, 48.0 kHz, 2 ch
Аудио: AAC, 192 kbps, 48.0 kHz, 2 ch
Episode 1
Episode 2
Episode 3
Episode 4
General
Unique ID : 223348951399840269436450030407094935133 (0xA807717FB3FC48349481038AFD749E5D)
Complete name : RoboMasters [KANSAI]\[KANSAI] RoboMasters the Animated Series - 01 [720p].mkv
Format : Matroska
Format version : Version 4 / Version 2
File size : 705 MiB
Duration : 24 min 50 s
Overall bit rate : 3 969 kb/s
Encoded date : UTC 2017-11-29 19:19:04
Writing application : mkvmerge v18.0.0 ('Apricity') 64-bit
Writing library : libebml v1.3.5 + libmatroska v1.4.8

Video
ID : 1
Format : AVC
Format/Info : Advanced Video Codec
Format profile : High@L4.1
Format settings : CABAC / 4 Ref Frames
Format settings, CABAC : Yes
Format settings, ReFrames : 4 frames
Codec ID : V_MPEG4/ISO/AVC
Duration : 24 min 49 s
Bit rate : 3 585 kb/s
Width : 1 280 pixels
Height : 720 pixels
Display aspect ratio : 16:9
Frame rate mode : Constant
Frame rate : 23.976 (24000/1001) FPS
Color space : YUV
Chroma subsampling : 4:2:0
Bit depth : 8 bits
Scan type : Progressive
Bits/(Pixel*Frame) : 0.162
Stream size : 637 MiB (90%)
Writing library : x264 core 129 r2245+729M 1a52e03
Encoding settings : cabac=1 / ref=4 / deblock=1:1:-1 / analyse=0x3:0x113 / me=umh / subme=9 / psy=1 / fade_compensate=0.00 / psy_rd=1.00:0.00 / mixed_ref=1 / me_range=24 / chroma_me=1 / trellis=2 / 8x8dct=1 / cqm=0 / deadzone=21,11 / fast_pskip=1 / chroma_qp_offset=-2 / threads=8 / lookahead_threads=1 / sliced_threads=0 / nr=0 / decimate=1 / interlaced=0 / bluray_compat=0 / constrained_intra=0 / fgo=0 / bframes=9 / b_pyramid=2 / b_adapt=2 / b_bias=0 / direct=1 / weightb=1 / open_gop=0 / weightp=2 / keyint=240 / keyint_min=24 / scenecut=40 / intra_refresh=0 / rc=crf / mbtree=0 / crf=16.5 / qcomp=0.72 / qpmin=0 / qpmax=69 / qpstep=4 / ip_ratio=1.40 / pb_ratio=1.30 / aq=1:0.85
Language : Japanese
Default : Yes
Forced : No
Color range : Limited
Color primaries : BT.709
Transfer characteristics : BT.709
Matrix coefficients : BT.709

Audio #1
ID : 2
Format : AAC
Format/Info : Advanced Audio Codec
Format profile : LC
Codec ID : A_AAC-2
Duration : 24 min 49 s
Bit rate : 192 kb/s
Channel(s) : 2 channels
Channel positions : Front: L R
Sampling rate : 48.0 kHz
Frame rate : 46.875 FPS (1024 SPF)
Compression mode : Lossy
Stream size : 33.6 MiB (5%)
Language : Russian
Default : Yes
Forced : No

Audio #2
ID : 3
Format : AAC
Format/Info : Advanced Audio Codec
Format profile : LC
Codec ID : A_AAC-2
Duration : 24 min 50 s
Bit rate : 192 kb/s
Channel(s) : 2 channels
Channel positions : Front: L R
Sampling rate : 48.0 kHz
Frame rate : 46.875 FPS (1024 SPF)
Compression mode : Lossy
Stream size : 34.1 MiB (5%)
Language : Japanese
Default : No
Forced : No


Время раздачи: До первых сидов
[NNM-Club.name]_RoboMasters [KANSAI].torrent
 Торрент:   Зарегистрирован
 
Зарегистрируйтесь и скачайте торрент!
12,4 KB
Free Leech
Примагнититься
 Зарегистрирован:   10 Дек 2017 23:50:40
 Размер:   2,34 GB  (
 Рейтинг:   4,2 (Голосов: 10)
 Поблагодарили:   19
 Проверка:   Оформление проверено модератором 11 Дек 2017 06:54:14
Как cкачать  ·  Как раздать  ·  Правильно оформить  ·  Поднять ратио!  
Ampho_DnB ®
RG Аниме
Uploader 100+
 
Стаж: 5 лет 10 мес.
Сообщений: 2735
Ratio: 187,521
Поблагодарили: 72408
100%
Откуда: дует?
roody.gif
Торрент обновлен. Добавлена 4 серия.
Показать сообщения:   
Начать новую тему   Ответить на тему    Торрент-трекер NNM-Club -> Аниме с озвучкой -> Онгоинги с озвучкой Часовой пояс: GMT + 3
Страница 1 из 1