Интеллигентный торрент-трекер
canvas not supported
Нас вместе: 4 254 046

Blind Petition - No Prisoners (2004) [FLAC|Lossless|image + .cue] <Heavy Metal, Hard Rock>


 
 
RSS
Начать новую тему   Ответить на тему    Торрент-трекер NNM-Club -> Rock, Alternative, Punk, Metal -> Metal (Lossless)
Автор Сообщение
gatherone ®
RG Music
 
Стаж: 5 лет 4 мес.
Сообщений: 1815
Ratio: 213,957
Поблагодарили: 43846
5.33%
Blind Petition - No Prisoners (2004)
Жанр: Heavy Metal, Hard Rock
Продолжительность: 00:46:11

Кодек: FLAC
Битрейт: Lossless
Тип рипа: image + .cue

Треклист:
01. The Orchestra 04:34
02. Academy 04:32
03. Those Pictures 03:40
04. Miss Fascination 05:24
05. Chimney 04:21
06. Cheerleaders 03:54
07. Good Soul 04:45
08. Copy My Style 04:01
09. Mr. Jenkin’ James 03:35
10. Routine 04:54
11. Good Bye Robby 02:28
General
Complete name : /home/pcbig/Музыка/_1MM/Blind Petition - 2004 - No Prisoners/data/ACADEMY.MOV
Format : QuickTime
Format/Info : Original Apple specifications
File size : 262 MiB
Duration : 4mn 40s
Overall bit rate mode : Variable
Overall bit rate : 7 844 Kbps
Encoded date : UTC 2004-06-07 11:50:07
Tagged date : UTC 2004-06-07 12:28:46
Writing library : Apple QuickTime

Video
ID : 1
Format : Sorenson 3
Codec ID : SVQ3
Codec ID/Info : Sorenson Media Video 3 (Apple QuickTime 5)
Duration : 4mn 40s
Bit rate mode : Variable
Bit rate : 6 428 Kbps
Width : 720 pixels
Height : 576 pixels
Display aspect ratio : 5:4
Frame rate mode : Constant
Frame rate : 25.000 fps
Standard : PAL
Bits/(Pixel*Frame) : 0.620
Stream size : 215 MiB (82%)
Language : English
Encoded date : UTC 2004-06-07 11:50:07
Tagged date : UTC 2004-06-07 12:28:46

Audio
ID : 2
Format : PCM
Format settings, Endianness : Big
Format settings, Sign : Signed
Codec ID : twos
Duration : 4mn 40s
Bit rate mode : Constant
Bit rate : 1 411.2 Kbps
Channel(s) : 2 channels
Sampling rate : 44.1 KHz
Bit depth : 16 bits
Stream size : 47.2 MiB (18%)
Language : English
Encoded date : UTC 2004-06-07 11:50:07
Tagged date : UTC 2004-06-07 12:28:46
Время раздачи: 19.00 - 23.00 (до появления первых 3-5 скачавших)


Поглощение/вытеснение
Только с согласия релизера

Bigbeer
[NNM-Club.name]_Blind Petition - 2004 - No Prisoners.torrent
 Торрент:   Зарегистрирован
 
Зарегистрируйтесь и скачайте торрент!
25,4 KB
Free Leech
Примагнититься
 Зарегистрирован:   02 Дек 2017 21:05:12
 Размер:   626 MB  (
 Рейтинг:    (Голосов: 3)
 Поблагодарили:   34
 Проверка:   Оформление проверено модератором 04 Дек 2017 13:55:48
Как cкачать  ·  Как раздать  ·  Правильно оформить  ·  Поднять ратио!  
Показать сообщения:   
Начать новую тему   Ответить на тему    Торрент-трекер NNM-Club -> Rock, Alternative, Punk, Metal -> Metal (Lossless) Часовой пояс: GMT + 3
Страница 1 из 1