Интеллигентный торрент-трекер
canvas not supported
Нас вместе: 4 249 974

Kronos Quartet & Trio Da Kali - Ladilikan (2017) [FLAC|Lossless|tracks + .cue] <Mande Music, Chamber Music>


 
 
RSS
Начать новую тему   Ответить на тему    Торрент-трекер NNM-Club -> Other Styles -> Other (Lossless)
Автор Сообщение
zapahgary ®

Online
Стаж: 7 лет 6 мес.
Сообщений: 181
Ratio: 64,662
Поблагодарили: 2630
94.25%
russia.gif
Kronos Quartet & Trio Da Kali - Ladilikan (2017)
Жанр: Mande Music, Chamber Music
Издание: World Circuit - WC 093
Продолжительность: 00:46:41

Кодек: FLAC
Битрейт: Lossless
Тип рипа: tracks + .cue

Треклист:
01. Tita (06:54)
02. Kanimba (04:39)
03. Eh Ya Ye (04:51)
04. Garaba Mama (03:02)
05. God Shall Wipe All Tears Away (03:07)
06. Samuel (03:51)
07. Lila Bambo (04:57)
08. Kene Bo (03:03)
09. Ladilikan (04:58)
10. Sunjata (07:19)
foobar2000 1.3.16 / Замер динамического диапазона (DR) 1.1.1
Дата отчёта: 2017-12-05 22:13:49

--------------------------------------------------------------------------------
Анализ: Trio Da Kali And Kronos Quartet / Ladilikan
--------------------------------------------------------------------------------

DR Пики RMS Продолжительность трека
--------------------------------------------------------------------------------
DR6 -0.63 дБ -9.22 дБ 6:54 01-Tita
DR6 -0.68 дБ -8.44 дБ 4:40 02-Kanimba
DR6 -0.19 дБ -7.63 дБ 4:52 03-Eh Ya Ye
DR5 -0.19 дБ -7.22 дБ 3:03 04-Garaba Mama
DR7 -0.19 дБ -9.58 дБ 3:07 05-God Shall Wipe All Tears Away
DR11 -0.18 дБ -13.87 дБ 3:52 06-Samuel
DR7 -0.18 дБ -8.38 дБ 4:59 07-Lila Bambo
DR7 -0.19 дБ -9.21 дБ 3:03 08-Kene Bo
DR5 -0.16 дБ -7.17 дБ 4:58 09-Ladilikan
DR9 -0.20 дБ -11.64 дБ 7:21 10-Sunjata
--------------------------------------------------------------------------------

Количество треков: 10
Реальные значения DR: DR7

Частота: 44100 Гц
Каналов: 2
Разрядность: 16
Битрейт: 697 кбит/с
Кодек: FLAC
================================================================================
YouTube


Поглощение/вытеснение
Только с согласия релизера

Pashketan
[NNM-Club.name]_Trio Da Kali And Kronos Quartet - Ladilikan (2017)(FLAC)(CD).torrent
 Торрент:   Зарегистрирован
 
Зарегистрируйтесь и скачайте торрент!
21,4 KB
Free Leech
Примагнититься
 Зарегистрирован:   05 Дек 2017 22:27:33
 Размер:   262 MB  (
 Рейтинг:    (Голосов: 5)
 Поблагодарили:   32
 Проверка:   Оформление проверено модератором 10 Дек 2017 17:17:46
Как cкачать  ·  Как раздать  ·  Правильно оформить  ·  Поднять ратио!  
Показать сообщения:   
Начать новую тему   Ответить на тему    Торрент-трекер NNM-Club -> Other Styles -> Other (Lossless) Часовой пояс: GMT + 3
Страница 1 из 1