Интеллигентный торрент-трекер
canvas not supported
Нас вместе: 4 249 477

Bob Seger - I Knew You When (2017) Deluxe Edition [FLAC|Lossless|tracks + .cue] <Rock>


 
 
RSS
Начать новую тему   Ответить на тему    Торрент-трекер NNM-Club -> Rock, Alternative, Punk, Metal -> Rock (Lossless)
Автор Сообщение
zapahgary ®
Стаж: 7 лет 6 мес.
Сообщений: 181
Ratio: 65,098
Поблагодарили: 2650
94.36%
russia.gif
Bob Seger - I Knew You When (2017) Deluxe Edition
Жанр: Rock
Издание: Capitol Records - B002759902
Продолжительность: 00:51:37

Кодек: FLAC
Битрейт: Lossless
Тип рипа: tracks + .cue

Треклист:
01. Gracile (02:48)
02. Busload of Faith (04:32)
03. The Highway (03:38)
04. I Knew You When (03:53)
05. I’ll Remember You (03:48)
06. The Sea Inside (04:14)
07. Marie (03:26)
08. Runaway Train (04:10)
09. Something More (03:47)
10. Democracy (06:32)
11. Forward Into the Past (04:12)
12. Blue Ridge (03:50)
13. Glenn Song (02:49)
foobar2000 1.3.16 / Замер динамического диапазона (DR) 1.1.1
Дата отчёта: 2017-12-06 07:39:22

--------------------------------------------------------------------------------
Анализ: Bob Seger / I Knew You When
--------------------------------------------------------------------------------

DR Пики RMS Продолжительность трека
--------------------------------------------------------------------------------
DR7 -0.48 дБ -8.77 дБ 2:48 01-Gracile
DR7 -0.22 дБ -8.75 дБ 4:32 02-Busload Of Faith
DR6 0.00 дБ -7.44 дБ 3:38 03-The Highway
DR6 0.00 дБ -7.28 дБ 3:53 04-I Knew You When
DR5 0.00 дБ -8.05 дБ 3:48 05-I'll Remember You
DR6 0.00 дБ -7.68 дБ 4:14 06-The Sea Inside
DR6 0.00 дБ -8.67 дБ 3:26 07-Marie
DR6 -0.16 дБ -7.61 дБ 4:10 08-Runaway Train
DR7 -0.07 дБ -8.81 дБ 3:47 09-Something More
DR6 -0.04 дБ -8.62 дБ 6:32 10-Democracy
DR6 -0.41 дБ -7.85 дБ 4:12 11-Forward Into The Past
DR5 -0.15 дБ -6.94 дБ 3:50 12-Blue Ridge
DR8 -0.41 дБ -10.15 дБ 2:49 13-Glenn Song
--------------------------------------------------------------------------------

Количество треков: 13
Реальные значения DR: DR6

Частота: 44100 Гц
Каналов: 2
Разрядность: 16
Битрейт: 851 кбит/с
Кодек: FLAC
================================================================================
Время раздачи: 24/7 (круглосуточно)


Поглощение/вытеснение
Только с согласия релизера

Bigbeer
[NNM-Club.name]_Bob Seger - I Knew You When (Deluxe Edition)(2017)(FLAC)(CD).torrent
 Торрент:   Зарегистрирован
 
Зарегистрируйтесь и скачайте торрент!
30,2 KB
Free Leech
Примагнититься
 Зарегистрирован:   06 Дек 2017 08:21:26
 Размер:   373 MB  (
 Рейтинг:    (Голосов: 5)
 Поблагодарили:   60
 Проверка:   Оформление проверено модератором 06 Дек 2017 14:18:40
Как cкачать  ·  Как раздать  ·  Правильно оформить  ·  Поднять ратио!  
Показать сообщения:   
Начать новую тему   Ответить на тему    Торрент-трекер NNM-Club -> Rock, Alternative, Punk, Metal -> Rock (Lossless) Часовой пояс: GMT + 3
Страница 1 из 1