Интеллигентный торрент-трекер
canvas not supported
Нас вместе: 4 220 273

Голова (2004) DVD5


 
 
RSS
Начать новую тему   Ответить на тему    Торрент-трекер NNM-Club -> Архив торрентов -> Архив Классики и Старого кино / Артхаус
Автор Сообщение
SJSti​llAli​ve​ ®
Покровитель талантов
 
Стаж: 6 лет 10 мес.
Сообщений: 1470
Ratio: 24,611
Раздал: 17,06 TB
Поблагодарили: 68640
39.71%
logo.gif
Голова (2004) DVD5
Русское название: Голова
Год выпуска: 2004
Жанр: Драма

Описание фильма:
Новому русскому достается в наследство голова. Вопреки ожиданиям отсутствие тела не мешает голове нормально существовать и даже давать новому русскому мудрые советы. Новый русский следует ее советам беспрекословно.

Режиссер: Светлана Баскова
Актеры: Сергей Пахомов, Александр Маслаев, Александр Миронов, Денис Геймур, Леонид Машинский, Рустам Мосафир, Георгий Острецов, Данила Константинов, Дмитрий Пименов

Продолжительность: 01:28:26
Субтитры: отсутствуют



Видеокодек: MPEG-2
Битрейт видео: ~5500 Кбит/сек
Размер кадра: 720 х 576@768 х 576
Качество видео: DVD5
Аудиокодек: MP2, 2 канала
Битрейт аудио: 224 Кбит/сек
Общее
Полное имя : F:\Голова DVD5 nnmclub.to\VIDEO_TS\VTS_01_3.VOB
Формат : MPEG-PS
Размер файла : 1024 Мбайт
Продолжительность : 24 м.
Общий поток : 5850 Кбит/сек

Видео
Идентификатор : 224 (0xE0)
Формат : MPEG Video
Версия формата : Version 2
Профиль формата : Main@Main
Параметр BVOP формата : Да
Параметр матрицы формата : По умолчанию
Параметры GOP формата : M=3, N=15
Продолжительность : 24 м.
Вид битрейта : Постоянный
Битрейт : 5500 Кбит/сек
Ширина : 720 пикс.
Высота : 576 пикс.
Соотношение сторон : 4:3
Частота кадров : 25,000 кадр/сек
Стандарт вещания : PAL
Цветовое пространство : YUV
Подвыборка цветности : 4:2:0
Битовая глубина : 8 бит
Тип развёртки : Чересстрочная
Порядок развёртки : Нижнее поле первое
Метод сжатия : С потерями
Бит/(Пиксели*Кадры) : 0.530
Размер потока : 964 Мбайт (94%)

Аудио
Идентификатор : 192 (0xC0)
Формат : MPEG Audio
Версия формата : Version 1
Профиль формата : Layer 2
Продолжительность : 24 м.
Вид битрейта : Постоянный
Битрейт : 224 Кбит/сек
Каналы : 2 канала
Частота : 48,0 КГц
Метод сжатия : С потерями
Задержка видео : -232 мс.
Размер потока : 39,2 Мбайт (4%)

Меню
Title: Голова DVD5 nnmclub.to
Size: 3.61 Gb ( 3 789 412,00 KBytes ) - DVD-5
Enabled regions: 1, 2, 3, 4, 5, 6, 7, 8

VTS_01 :
Play Length: 01:28:26
Video: PAL 4:3 (720x576) VBR
Audio:
Not specified (MPEG1, 2 ch)

* Menus Information *

VIDEO_TS Menu
Video:
NTSC 4:3 (720x480) VBR
Auto Pan&Scan, Auto Letterboxed
Language Unit :

VTS_01 Menu
Video:
NTSC 4:3 (720x480) VBR
Auto Pan&Scan, Auto Letterboxed
Language Unit :
Chapter (PTT) Menu
Дополнительные материалы: отсутствуют
Меню: отсутствует
Скриншоты:





Время раздачи: практически ежедневно с 12 до 4 до 10 скачавших. На раздачу не возвращаюсь.

Все раздачи Голова на NNM-CLUB
Golova DVD5 nnm-club.ru.torrent
 Торрент: Золотая раздача  Зарегистрирован
 
Зарегистрируйтесь и скачайте торрент!
18,7 KB

Примагнититься
 Зарегистрирован:   23 Сен 2012 22:20:23
 Размер:   3,61 GB  (
 Рейтинг:    (Голосов: 7)
 Поблагодарили:   7
 Проверка:   Оформление проверено модератором 24 Сен 2012 01:35:02
Как cкачать  ·  Как раздать  ·  Правильно оформить  ·  Поднять ратио!  
nachb​ar451​7​
Стаж: 6 лет 8 мес.
Сообщений: 8
Ratio: 0,975
67.49%
russia.gif
Боже ж ты мой!
Неужели не лень этот КАЛ выкладывать сюда

--------------
На раздачу не возвращаюсь.
---------------------------

С таким дерьмом лучше вообще не появляться.

Режиссер: Светлана Баскова
Будем знать ДУРУ в лицо
SJSti​llAli​ve​ ®
Покровитель талантов
 
Стаж: 6 лет 10 мес.
Сообщений: 1470
Ratio: 24,611
Раздал: 17,06 TB
Поблагодарили: 68640
39.71%
logo.gif
nachbar4517 писал(а): Перейти к сообщению
Боже ж ты мой!
Неужели не лень этот КАЛ выкладывать сюда

--------------
На раздачу не возвращаюсь.
---------------------------

С таким дерьмом лучше вообще не появляться.

Режиссер: Светлана Баскова
Будем знать ДУРУ в лицо


Не лень.
Не нравится - не смотри.
Трекер существует не для удовлетворения личных потребностей отдельно взятого индивидуума.

А для любителя слова "Кал" советую посмотреть фильм "Зеленый слоник". Там эта тема широко раскрыта.
nachb​ar451​7​
Стаж: 6 лет 8 мес.
Сообщений: 8
Ratio: 0,975
67.49%
russia.gif
Цитата:
А для любителя слова "Кал" советую посмотреть фильм "Зеленый слоник". Там эта тема широко раскрыта.
- на этом трекере нет, подозреваю что этот слоник подобен этому трэшу. Тск что и не напрягаюсь поиском

Лично к Вам у меня никаких претензий нет.
А вот режисера со всей командой фильма можно в психушку закрывать!
Топик был перенесен из форума Авторское кино в форум Видео (temp)

Причина переноса: нет сидов
viktor561
Топик был перенесен из форума Видео (temp) в форум Архив Классики и Старого кино / Артхаус

Причина переноса: нет сидов
viktor561
moroz​95061​234​
Стаж: 6 лет 3 мес.
Сообщений: 42
Ratio: 19,31
Раздал: 8,478 TB
86.56%
Откуда: Калин​ингра​д​
cod4.gif
скорости плииз!!!
MSTWNTED2
Стаж: 5 лет 3 мес.
Сообщений: 1
Ratio: 0,009
2.7%
Пожалуйста, вернитесь на раздачу!
Показать сообщения:   
Начать новую тему   Ответить на тему    Торрент-трекер NNM-Club -> Архив торрентов -> Архив Классики и Старого кино / Артхаус Часовой пояс: GMT + 3
Страница 1 из 1