Интеллигентный торрент-трекер
canvas not supported
Нас вместе: 4 303 011

Покровские ворота (1982) BDRemux [1080p]


 
 
RSS
Начать новую тему   Ответить на тему    Торрент-трекер NNM-Club -> Классика кино и Старые фильмы до 90-х -> Отечественная Классика (HD)
Автор Сообщение
Lelya_K ®
Стаж: 6 лет 6 мес.
Сообщений: 5538
Ratio: 7169,418
Раздал: 109,3 TB
Поблагодарили: 607901
100%
Откуда: Московская область
nnm-club.gif
Покровские ворота (1982) BDRemux
Оригинальное название: Покровские ворота
Год выпуска: 1982
Производство: Мосфильм [СССР]
Жанр: Мюзикл, драма, мелодрама, комедия
Перевод: Не требуется [Русский язык]
Субтитры: Отсутствуют

Режиссер: Михаил Козаков
Актеры: Олег Меньшиков, Леонид Броневой, Инна Ульянова, Анатолий Равикович, Виктор Борцов, Софья Пилявская, Елена Коренева, Татьяна Догилева, Елизавета Никищихина, Игорь Дмитриев, Валентина Воилкова, Михаил Козаков, Алексей Коняшин, Александр Пятков, Леонид Тарновский

Описание фильма:
Если вы развелись, и ваша бывшая жена снова вышла замуж — это еще не значит, что вы свободны. Если вы пригласили девушку на свидание, и она пришла, это еще не значит, что она будет вашей. Но если при этом ваш сосед по коммуналке — студент Костик, то можете быть уверены — все будет хорошо.

Дата выхода DVD релиза: 18 сентября 2008, «Азимут»
Возраст 0+ - для любой зрительской аудитории



Продолжительность: 02:19:43 (01:05:57 + 01:13:46)
Качество видео: BDRemux

Видео: MPEG4_AVC/H.264, 1920x1080, ~ 19686 kbps, 23.976 fps
Аудио 1: DTS-HD MA 5.1, 3570 kbps [Русский]
Аудио 2: AC3 5.1, 448 kbps [Русский]
Полное имя : D:\Покровские.ворота.(1982).[1080p].BDRemux.(1.серия).mkv
Формат : Matroska
Версия формата : Version 2
Размер файла : 10,9 Гбайт
Продолжительность : 1 ч. 5 м.
Режим общего битрейта : Переменный
Общий поток : 23,6 Мбит/сек
Название фильма : Lelya_K for NNM-Club.ru
Дата кодирования : UTC 2013-04-21 03:12:38
Программа кодирования : mkvmerge v5.7.0 ('The Whirlwind') built on Aug 7 2012 14:11:40
Библиотека кодирования : libebml v1.2.3 + libmatroska v1.3.0

Видео
Идентификатор : 1
Формат : AVC
Формат/Информация : Advanced Video Codec
Профиль формата : High@L4.1
Параметр CABAC формата : Да
Параметр ReFrames формата : 4 кадра
Идентификатор кодека : V_MPEG4/ISO/AVC
Продолжительность : 1 ч. 5 м.
Вид битрейта : Переменный
Битрейт : 21,2 Мбит/сек
Максимальный битрейт : 25,0 Мбит/сек
Ширина : 1920 пикселей
Высота : 1080 пикселей
Соотношение сторон : 16:9
Режим частоты кадров : Постоянный
Частота кадров : 23,976 кадра/сек
Стандарт вещания : NTSC
Цветовое пространство : YUV
Субдискретизация насыщенности : 4:2:0
Битовая глубина : 8 бит
Тип развёртки : Прогрессивная
Бит/(Пиксели*Кадры) : 0.426
Размер потока : 9,75 Гбайт (90%)
Заголовок : Покровские.ворота.(1982).[1080p].BDRemux
Язык : Russian
Default : Да
Forced : Нет
Основные цвета : BT.709
Характеристики трансфера : BT.709
Коэффициенты матрицы : BT.709

Аудио #1
Идентификатор : 2
Формат : DTS
Формат/Информация : Digital Theater Systems
Профиль формата : MA / Core
Идентификатор кодека : A_DTS
Продолжительность : 1 ч. 5 м.
Вид битрейта : Переменный
Битрейт : 1561 Кбит/сек / 1510 Кбит/сек
Каналы : 6 каналов
Расположение каналов : Front: L C R, Side: L R, LFE
Частота : 48,0 КГц
Битовая глубина : 24 бит
Метод сжатия : Без потерь / Lossy
Заголовок : DTS-HD MA 5.1 / 3570 kbps
Язык : Russian
Default : Да
Forced : Нет

Аудио #2
Идентификатор : 3
Формат : AC-3
Формат/Информация : Audio Coding 3
Расширение режима : CM (complete main)
Параметр Endianness формата : Big
Идентификатор кодека : A_AC3
Продолжительность : 1 ч. 5 м.
Вид битрейта : Постоянный
Битрейт : 448 Кбит/сек
Каналы : 6 каналов
Расположение каналов : Front: L C R, Side: L R, LFE
Частота : 48,0 КГц
Битовая глубина : 16 бит
Метод сжатия : С потерями
Размер потока : 211 Мбайт (2%)
Заголовок : AC3 5.1 / 448 kbps
Язык : Russian
Default : Нет
Forced : Нет

Меню
00:00:00.000 : ru:Chapter 00
00:04:41.739 : ru:Chapter 01
00:07:55.057 : ru:Chapter 02
00:12:43.471 : ru:Chapter 03
00:17:41.477 : ru:Chapter 04
00:22:17.377 : ru:Chapter 05
00:29:18.298 : ru:Chapter 06
00:33:50.194 : ru:Chapter 07
00:48:47.215 : ru:Chapter 08
00:50:58.722 : ru:Chapter 09
00:55:14.769 : ru:Chapter 10
01:04:12.431 : ru:Chapter 11
Полное имя : D:\Покровские.ворота.(1982).[1080p].BDRemux.(2.серия).mkv
Формат : Matroska
Версия формата : Version 2
Размер файла : 12,2 Гбайт
Продолжительность : 1 ч. 13 м.
Режим общего битрейта : Переменный
Общий поток : 23,8 Мбит/сек
Название фильма : Lelya_K for NNM-Club.ru
Дата кодирования : UTC 2013-04-21 01:20:01
Программа кодирования : mkvmerge v5.7.0 ('The Whirlwind') built on Aug 7 2012 14:11:40
Библиотека кодирования : libebml v1.2.3 + libmatroska v1.3.0

Видео
Идентификатор : 1
Формат : AVC
Формат/Информация : Advanced Video Codec
Профиль формата : High@L4.1
Параметр CABAC формата : Да
Параметр ReFrames формата : 4 кадра
Параметр GOP формата : M=3, N=24
Идентификатор кодека : V_MPEG4/ISO/AVC
Продолжительность : 1 ч. 13 м.
Вид битрейта : Переменный
Битрейт : 21,3 Мбит/сек
Максимальный битрейт : 25,0 Мбит/сек
Ширина : 1920 пикселей
Высота : 1080 пикселей
Соотношение сторон : 16:9
Режим частоты кадров : Постоянный
Частота кадров : 23,976 кадра/сек
Стандарт вещания : NTSC
Цветовое пространство : YUV
Субдискретизация насыщенности : 4:2:0
Битовая глубина : 8 бит
Тип развёртки : Прогрессивная
Бит/(Пиксели*Кадры) : 0.428
Размер потока : 11,0 Гбайт (90%)
Заголовок : Покровские.ворота.(1982).[1080p].BDRemux
Язык : Russian
Default : Да
Forced : Нет
Основные цвета : BT.709
Характеристики трансфера : BT.709
Коэффициенты матрицы : BT.709

Аудио #1
Идентификатор : 2
Формат : DTS
Формат/Информация : Digital Theater Systems
Профиль формата : MA / Core
Идентификатор кодека : A_DTS
Продолжительность : 1 ч. 13 м.
Вид битрейта : Переменный
Битрейт : 1561 Кбит/сек / 1510 Кбит/сек
Каналы : 6 каналов
Расположение каналов : Front: L C R, Side: L R, LFE
Частота : 48,0 КГц
Битовая глубина : 24 бит
Метод сжатия : Без потерь / Lossy
Заголовок : DTS-HD MA 5.1 / 3570 kbps
Язык : Russian
Default : Да
Forced : Нет

Аудио #2
Идентификатор : 3
Формат : AC-3
Формат/Информация : Audio Coding 3
Расширение режима : CM (complete main)
Параметр Endianness формата : Big
Идентификатор кодека : A_AC3
Продолжительность : 1 ч. 13 м.
Вид битрейта : Постоянный
Битрейт : 448 Кбит/сек
Каналы : 6 каналов
Расположение каналов : Front: L C R, Side: L R, LFE
Частота : 48,0 КГц
Битовая глубина : 16 бит
Метод сжатия : С потерями
Размер потока : 236 Мбайт (2%)
Заголовок : AC3 5.1 / 448 kbps
Язык : Russian
Default : Нет
Forced : Нет

Меню
00:00:00.000 : ru:Chapter 00
00:12:49.894 : ru:Chapter 01
00:14:19.441 : ru:Chapter 02
00:17:49.359 : ru:Chapter 03
00:19:37.049 : ru:Chapter 04
00:19:46.850 : ru:Chapter 05
00:32:44.376 : ru:Chapter 06
00:34:01.786 : ru:Chapter 07
00:36:07.119 : ru:Chapter 08
00:41:18.513 : ru:Chapter 09
00:44:45.845 : ru:Chapter 10
00:47:05.734 : ru:Chapter 11
00:49:10.525 : ru:Chapter 12
00:55:10.342 : ru:Chapter 13
01:04:32.486 : ru:Chapter 14
01:09:51.805 : ru:Chapter 15
01:13:45.288 : ru:Chapter 16
Полная реставрация изображения и звука. Исходные киноматериалы подготовлены Госфильмофондом России. Покадровая цифровая реставрация изображения, ремастеринг звука и авторинг проведены объединением «Крупный план».
Скриншоты:


Время раздачи: 24/7 (до 10 скачавших)
  • Эммануил Геллер сыграл в фильме дедушку Савельича, при том, что у самого Геллера отчество тоже было «Савельевич».
  • Этот фильм, вообще мог не появиться. Дело в том, что Козаков неоднократно отказывался от роли Дзержинского в фильме «Государственная граница» (куда, кстати сказать, его утверждали без кинопроб). Руководство Госкино поставило Козакова перед выбором: либо он соглашается на роль Дзержинского, либо ему не позволят снимать Покровские ворота.
  • Перед сдачей фильма в прокат, у Козакова так же появилась большая проблема: почти сразу же после окончания производства фильма, актриса Елена Коренева (исполнившая роль Людочки) эмигрировала за рубеж. Естественно, этот факт бросил тень на всю съемочную группу. По словам Козакова, он сделал так, что на закрытом просмотре худсоветом «случайно» оказался один из представителей партийной элиты, и фильм ему понравился. Это и спасло фильм от того, что его не «положили на полку».
  • В начале второй серии фильма есть эпизод, в котором во время свидания Костика с Ритой показываются простые москвичи на улицах города. У одного из детей, играющих в парке на курточке видна эмблема олимпиады «Москва-80».
  • В фильме есть эпизод, в котором героиня Инны Ульяновой Маргарита Павловна стоит у входа в кинотеатр под афишей фильма «Карнавальная ночь», в котором актриса была задействована в массовке — ее лицо видно среди других гостей новогоднего праздника.
«Игра страстей в непосредственной близости от Покровских ворот…»
Кино на все времена. Его с удовольствием пересмотришь и через 20, и через 50 лет, пускай даже о том времени знаешь только по рассказам дедушек и бабушек. На редкость удачная компиляция жанров комедии, драмы и мелодрамы в одном лице, живой и достоверный срез той эпохи, несмотря на то, что снималась картина через 30 лет, когда настроения были уже несколько иными, но зато остались живыми воспоминания. А еще ностальгия по тому времени — неоднозначному, как и всякое другое, но (опять-таки, как и всякое другое) оставившее о себе в людской памяти и добрый след.

Практически все актерские работы, от главных до эпизодических, запоминаются своей характерностью и «своеобычностью». У каждого из них своя драма, свои переживания, каждый из них проходит через серьезный этап в своей жизни, который заставит его измениться, как меняется и бежит вперед время.

Смешные ситуации, трогательные признания и нежные чувства, переосмысление собственного «я»и отношений с другими, близкими и не очень людьми, поиск гармонии с окружающим миром — все это можно найти в этой тонкой лирической картине Михаила Козакова, которая то буквально брызжет энергетикой и действием, то погружается фактически в самосозерцание, замедляя развитие событий практически до нуля. Но даже в такие моменты чувствуешь, что «игра страстей у Покровских ворот» продолжается, только уже незримо и без внешних проявлений, где-то в глубине души.

Возвращаясь к актерским работам и перебрав в памяти действующих лиц и исполнителей, с удивлением приходишь к выводу, что хотя в фильме снялись актеры по сути трех поколений, от Олега Меньшикова и Валентины Вилковой до Софьи Пилявской и Игоря Дмитриева и «Покровские ворота» застали каждого из них на «старте», «в разбеге» или уже в «полете», для каждого из них, несмотря на их предыдущие и последующие работы в кино, роли в этой картине навсегда остались знаковыми, невзирая на их (ролей) первый, второй или даже третий план.

И нет смысла, мне кажется, перечислять лучших. Конечно, кому-то по сердцу мог прийтись тот или иной отдельный персонаж, показаться ближе, чем остальные, но в целом, считаю, все актеры сыграли исключительно удачно.

Отдельным пунктом в ленте идет музыка, о которой можно говорить долго, но лучше просто слушать и наслаждаться. А также лишний раз оценить, сколь красиво и мастерски она передает настроение эпохи. Композитор Георгий Гаранян проделал очень большую кропотливую работу, результат которой, как и весь фильм, уже оценило не одно поколение зрителей.

И такой фильм, конечно, просто не может заслуживать иной оценки, кроме как
10 из 10
[NNM-Club.ru]_Pokrovskie.vorota.(1982).[1080p].BDRemux.torrent
 Торрент: Платиновая раздача  Зарегистрирован
 
Скачать


Примагнититься
 Зарегистрирован:   21 Апр 2013 07:21:30
 Размер:   23,1 GB  (
 Рейтинг:   4,7 (Голосов: 76)
 Поблагодарили:   201
 Проверка:   Оформление проверено модератором 21 Апр 2013 21:04:34
Как cкачать  ·  Как раздать  ·  Правильно оформить  ·  Поднять ратио!  
vladi​miger​ma​
Стаж: 6 лет 4 мес.
Сообщений: 1021
Ratio: 30,4
86.17%
russia.gif
Благодарю.
vaka18
Стаж: 4 года 8 мес.
Сообщений: 29
Ratio: 9,656
83.23%
Спасибо, большое!!!!!!!!!!!!!!!!!!!
edik60606
Стаж: 6 лет 10 мес.
Сообщений: 736
Ratio: 3,469
64.56%
Откуда: эстония
estonia.gif
Вот это видно Блурей! Спасибо!
Isoto​pE-55​5​
Стаж: 5 лет 5 мес.
Сообщений: 165
Ratio: 10,801
100%
russia.gif
Спасибо! Я правильно понимаю, что, в отличие от оригинала, тут "отрезан" LPCM?
Lelya_K ®
Стаж: 6 лет 6 мес.
Сообщений: 5538
Ratio: 7169,418
Раздал: 109,3 TB
Поблагодарили: 607901
100%
Откуда: Московская область
nnm-club.gif
IsotopE-555
Все верно. Отсутствует LPCM, меню и бонусы в виде фильмографии.
Всем пожалуйста! :приветствую:
Isoto​pE-55​5​
Стаж: 5 лет 5 мес.
Сообщений: 165
Ratio: 10,801
100%
russia.gif
Наверно, меню-то можно было оставить ...
Galar
Стаж: 8 лет 1 мес.
Сообщений: 56
Ratio: 185,644
Поблагодарили: 3507
20.31%
Откуда: DNEPR
ukraine.gif
IsotopE-555 писал(а): Перейти к сообщению
Наверно, меню-то можно было оставить ...
Нет, меню при таком формате оставить нельзя...
Borvas
Стаж: 5 лет 9 мес.
Сообщений: 101
Ratio: 7,984
Поблагодарили: 62
100%
jamaica.gif
Заранее извиняюсь за возможно глупый вопрос: Черные полосы справа и слева - это так и должно быть? Или у меня телевизор какой-то неправильный?
За раздачу большое спасибо!
Anka090955
Стаж: 6 мес. 28 дней
Сообщений: 5
Ratio: 58,106
100%
Сказать - "спасибо!!!" - ничего не сказать! Да не болят руки Ваши...
Показать сообщения:   
Начать новую тему   Ответить на тему    Торрент-трекер NNM-Club -> Классика кино и Старые фильмы до 90-х -> Отечественная Классика (HD) Часовой пояс: GMT + 3
Страница 1 из 1