Интеллигентный торрент-трекер
canvas not supported
Нас вместе: 4 269 777

Болек и Лёлек / Bolek i Lolek (1963 – 1986) 31xDVD5


Страницы:  1, 2  След. 
 
RSS
Начать новую тему   Ответить на тему    Торрент-трекер NNM-Club -> Мультфильмы -> Зарубежные Мультсериалы
Автор Сообщение
almikl ®
Куратор Детского.
Модератор Видео.
RG Всё лучшее - детям!
Uploader 300+
 
Стаж: 10 лет 5 мес.
Сообщений: 4246
Ratio: 239,985
Поблагодарили: 79011
100%
Откуда: Дааалекое Подмо​сковь​е​
russia.gif
Год выпуска: 1963 – 1986
Страны: Польша
Жанры: мультфильм, семейный

Режиссер: Юзеф Бырды, Юзеф Цвертня, Станислав Дюльц
Сценарий: Юзеф Цвертня, Станислав Дюльц, Альфред Ледвиг

Оператор: Дорота Пораневская, Мечислав Познански, Здислав Познански
Композитор : Тадеуш Каньский, Вальдемар Казанецкий, Тадеуш Коцыба
Художник: Юзеф Цвертня, Джанина Чечот, Тадеуш Депа, ...
Монтаж: Алойзий Моль

Описание: Хорошо знакомые и горячо любимые всеми веселые приятели Болек и Лелек никогда не сидят без дела. Они самые непоседливые и любознательные выдумщики на свете. Болек и Лелек обожают приключения и постоянно попадают в забавные ситуации, из которых непросто выпутаться.
Релиз на DVD: 7 июня 2007, «Союз-Видео»,
Перевод: Не требуется, Профессиональный (дублированный)
Продолжительность: более 20:00:00

Видеокодек: MPEG-2
Видео: ~PAL 4:3 (720x576) VBR, 7 000 Kbps
Качество видео: DVD5
Аудио: AC3, 2/0 (L,R) ch, 192 kbps
Релиз-группа: by almikl ® &
Болек и Лелек. Часть 1, 2 / Bolek i Lolek 1, 2 / Bolek a Lolek a jejich pribehy 1, 2 (1963-1964)
Год выпуска: 1963-1964, 1970
Страна: Польша
Жанр: Детский, Комедия, Мультфильм
Продолжительность: 01:03:29
Перевод: Не требуется
Русские субтитры: нет
Субтитры: Польские, немецкие, чешские, английские, французские, испанские

Режиссер: Władysław Nehrebecki, Leszek Lorek, Stanisław Dülz, Wacław Wajser, Lechosław Marszałek, Edward Wątor

В ролях: Болек и Лелек

Описание: На этот раз мы с нашими друзьями Лелеком и Болеком будем наслаждаться историями с ковбоями и укротителями животных. Пройдемся с ними по следам снежного человека и получим незабываемые впечатления от других приключений главных героев.
Приятного просмотра!

Качество: DVD5
Формат: DVD Video
Видео кодек: MPEG2
Аудио кодек: AC3
Видео: PAL 4:3 (720x576) VBR
Аудио: Polish (Dolby AC3, 2 ch)
Содержание диска 1:
1. Арбалет / Lukostřelci / Kusza
2. Снежный человек / Yeti / Yeti
3. Бравые ковбои / Hra na kovboje / Dzielni kowboje
4. Скрещенные шпаги / Zkřížené šavle / Skrzyżowane szpady
5. Укротитель / Krotitel zvířat / Pogromca zwierząt
6. Коррида / Korida / Corrida
7. По следам снежного человека / Po stopách Yetiho / Na tropach yeti

Содержание диска 2:
1. Индейский трофей / Indiańskie Trofeum
2. Космонавты / Kosmonauci
3. Король джунглей / Król Puszczy
4. Робинзон / Robinson
5. Искатели сокровищ / Poławiacze Skarbów
6. Спортсмены / Sportowcy
7. Два рыцаря / Dwaj Rycerze
Title: Íîâûé òîì
Size: 3.92 Gb ( 4 113 260 KBytes ) - DVD-5
Enabled regions: 1, 2, 3, 4, 5, 6, 7, 8

VTS_01 :
Play Length: 00:00:09
Video: PAL 4:3 (720x576) VBR
Audio:
Polish (Dolby AC3, 2 ch)

VTS_02 :
Play Length: 01:04:57
Video: PAL 4:3 (720x576) VBR
Audio:
Polish (Dolby AC3, 2 ch)
Subtitles:
Polish
Deutsch
Czech(Ceske)
English
Francais
Espanol

VTS_03 :
Play Length: 00:00:10
Video: PAL 4:3 (720x576) VBR
Subtitles:
Polish
Deutsch
Czech(Ceske)
English
Francais
Espanol

VTS_04 :
Play Length: 00:00:10
Video: PAL 4:3 (720x576) VBR
Subtitles:
Polish
Deutsch
Czech(Ceske)
English
Francais
Espanol

VTS_05 :
Play Length: 00:00:10
Video: PAL 4:3 (720x576) VBR
Subtitles:
Polish
Deutsch
Czech(Ceske)
English
Francais
Espanol

VTS_06 :
Play Length: 00:00:10
Video: PAL 4:3 (720x576) VBR
Subtitles:
Polish
Deutsch
Czech(Ceske)
English
Francais
Espanol

VTS_07 :
Play Length: 00:00:10
Video: PAL 4:3 (720x576) VBR
Subtitles:
Polish
Deutsch
Czech(Ceske)
English
Francais
Espanol

VTS_08 :
Play Length: 00:00:10
Video: PAL 4:3 (720x576) VBR
Subtitles:
Polish
Deutsch
Czech(Ceske)
English
Francais
Espanol
Общее
Полное имя : E:\Bolek i Lelek\Bolek a Lolek 2\VIDEO_TS\VTS_02_2.VOB
Формат : MPEG-PS
Размер файла : 1024 Мбайт
Продолжительность : 16 м.
Режим общего битрейта : Переменный
Общий поток : 8494 Кбит/сек

Видео
Идентификатор : 224 (0xE0)
Формат : MPEG Video
Версия формата : Version 2
Профиль формата : Main@Main
Параметр BVOP формата : Да
Параметр матрицы формата : Выборочная
Параметр GOP формата : M=3, N=15
Продолжительность : 16 м.
Вид битрейта : Переменный
Битрейт : 8000 Кбит/сек
Ширина : 720 пикселей
Высота : 576 пикселей
Соотношение сторон : 4:3
Частота кадров : 25,000 кадров/сек
Стандарт вещания : PAL
Цветовое пространство : YUV
Субдискретизация насыщенности : 4:2:0
Битовая глубина : 8 бит
Тип развёртки : Чересстрочная
Порядок развёртки : Верхнее поле первое
Метод сжатия : С потерями
Бит/(Пиксели*Кадры) : 0.772
Размер потока : 957 Мбайт (93%)

Аудио
Идентификатор : 189 (0xBD)-128 (0x80)
Формат : AC-3
Формат/Информация : Audio Coding 3
Расширение режима : CM (complete main)
Параметр Endianness формата : Big
Режим смешивания : DVD-Video
Продолжительность : 16 м.
Вид битрейта : Постоянный
Битрейт : 384 Кбит/сек
Каналы : 2 канала
Расположение каналов : Front: L R
Частота : 48,0 КГц
Битовая глубина : 16 бит
Метод сжатия : С потерями
Задержка видео : -432 мс.
Размер потока : 46,3 Мбайт (5%)

Меню
Бонусы: нет
Доп. информация: Это чешское издание Bolek a Lolek a jejich příběhy 1.
Скриншоты:
Болек и Лелек / Jym & Jam / Lolka es Bolka / Bolek i Lolek (1972-1980)
Страна: Польша
Жанр: Детский, мультфильм
Продолжительность: 01:13:54
Год выпуска: 1972 - 1980
Перевод: Не требуется
Русские субтитры: нет

Режиссёр: Владислав Нагребецки / Władysław Nehrebecki

Описание: Веселые приключения двух широко известных мультперсонажей Болека и Лелека, во время которых они попадают во всевозможные переделки, но удача всегда на их стороне.

Качество: DVD5
Формат: DVD-video
Видео: PAL, 4:3, 720x576, 5846 Кбит/сек
Аудио: AC3, 2 ch, 192 kbps
Субтитры: Нет
1. In The Forest (w puszczy / В лесу)
2. Hide and Seek (zabawa w chowanego / Игра в прятки)
3. On The Ball (wielki mecz / Большой матч)
4. Thet's Some Car (wycieczka samochodem / Автомобильная прогулка)
5. The Canary (kanarek / Канарейка)
6. Toothache (chory zab / Больной зуб)
7. Trop To the Mountains (wycieczka w gory / Прогулка в горы)
Title: Íîâûé òîì
Size: 3.41 Gb ( 3 574 844 KBytes ) - DVD-5
Enabled regions: 1, 2, 3, 4, 5, 6, 7, 8

VTS_01 :
Play Length:
Video: PAL 4:3 (720x576) VBR

VTS_02 :
Play Length:
Video: PAL 4:3 (720x576) VBR

VTS_03 :
Play Length:
Video: PAL 4:3 (720x576) VBR

VTS_04 :
Play Length: 00:09:11
Video: PAL 4:3 (720x576) VBR
Audio:
Not specified (Dolby AC3, 2 ch)

VTS_05 :
Play Length: 00:08:31
Video: PAL 4:3 (720x576) VBR
Audio:
Not specified (Dolby AC3, 2 ch)

VTS_06 :
Play Length: 00:09:42
Video: PAL 4:3 (720x576) VBR
Audio:
Not specified (Dolby AC3, 2 ch)

VTS_07 :
Play Length: 00:09:36
Video: PAL 4:3 (720x576) VBR
Audio:
Not specified (Dolby AC3, 2 ch)

VTS_08 :
Play Length: 00:09:18
Video: PAL 4:3 (720x576) VBR
Audio:
Not specified (Dolby AC3, 2 ch)

VTS_09 :
Play Length: 00:09:18
Video: PAL 4:3 (720x576) VBR
Audio:
Not specified (Dolby AC3, 2 ch)

VTS_10 :
Play Length: 00:09:00
Video: PAL 4:3 (720x576) VBR
Audio:
Not specified (Dolby AC3, 2 ch)

VTS_11 :
Play Length: 00:09:18
Video: PAL 4:3 (720x576) VBR
Audio:
Not specified (Dolby AC3, 2 ch)
Общее
Полное имя : E:\Bolek i Lelek\Lolka es Bolka 2\VIDEO_TS\VTS_04_1.VOB
Формат : MPEG-PS
Размер файла : 413 Мбайт
Продолжительность : 9 м. 10 с.
Режим общего битрейта : Переменный
Общий поток : 6289 Кбит/сек

Видео
Идентификатор : 224 (0xE0)
Формат : MPEG Video
Версия формата : Version 2
Профиль формата : Main@Main
Параметр BVOP формата : Да
Параметр матрицы формата : Выборочная
Параметр GOP формата : M=3, N=12
Продолжительность : 9 м. 10 с.
Вид битрейта : Переменный
Битрейт : 6000 Кбит/сек
Ширина : 720 пикселей
Высота : 576 пикселей
Соотношение сторон : 4:3
Частота кадров : 25,000 кадров/сек
Стандарт вещания : PAL
Цветовое пространство : YUV
Субдискретизация насыщенности : 4:2:0
Битовая глубина : 8 бит
Тип развёртки : Чересстрочная
Порядок развёртки : Верхнее поле первое
Метод сжатия : С потерями
Бит/(Пиксели*Кадры) : 0.579
Размер потока : 392 Мбайт (95%)

Аудио
Идентификатор : 189 (0xBD)-128 (0x80)
Формат : AC-3
Формат/Информация : Audio Coding 3
Расширение режима : CM (complete main)
Параметр Endianness формата : Big
Режим смешивания : DVD-Video
Продолжительность : 9 м. 10 с.
Вид битрейта : Постоянный
Битрейт : 192 Кбит/сек
Каналы : 2 канала
Расположение каналов : Front: L R
Частота : 48,0 КГц
Битовая глубина : 16 бит
Метод сжатия : С потерями
Задержка видео : -80 мс.
Размер потока : 12,6 Мбайт (3%)

Меню
Бонусы: Рекс весной / Reksiowa Wiosna
Дополнительная информация: Венгерское издание. На диске представлены американские версии мультфильма - Jym&Jam.
Скриншоты:
Болек и Лелек. У шахтеров / Bolek i Lolek wsrod gornikow / Bolek a Lolek mezi horniky (1980)
Страна: Польша
Жанр: Детский, Комедия, Мультфильм
Продолжительность: 1:04:20
Год выпуска: 1980
Перевод: Не требуется
Русские субтитры: нет

Режиссёр: Владислав Нагребецки / Władysław Nehrebecki, Станислав Дульц / Stanisław Dulz

Описание: Веселые приключения двух неунывающих друзей Болека и Лелека от польской студии рисованных мультфильмов "Бельска Бяла" ("Bielsku- Bialej"). На этот раз Болек и Лёлек отправляются в гости к шахтерам.

Качество: DVD5
Формат: DVD-video
Видео: PAL 4:3 (720x576) VBR
Аудио: AC3, 2 ch, 128 kbps
Субтитры: Polish, Deutsch, Czech(Ceske), English, Francais, Espanol
1. Дядя Карл / Wuj Karlik
2. Зелёный отвал / Zielona hałda
3. Хранитель сокровищ / Skarbnik
4. Барбурка / Barbórka
5. Посвящение в шахтёры / Pasowanie na górnika
6. В старой шахте / W starej kopalni
7. Чёрное золото / Czarne złoto
Title: Íîâûé òîì
Size: 3.41 Gb ( 3 574 844 KBytes ) - DVD-5
Enabled regions: 1, 2, 3, 4, 5, 6, 7, 8

VTS_01 :
Play Length:
Video: PAL 4:3 (720x576) VBR

VTS_02 :
Play Length:
Video: PAL 4:3 (720x576) VBR

VTS_03 :
Play Length:
Video: PAL 4:3 (720x576) VBR

VTS_04 :
Play Length: 00:09:11
Video: PAL 4:3 (720x576) VBR
Audio:
Not specified (Dolby AC3, 2 ch)

VTS_05 :
Play Length: 00:08:31
Video: PAL 4:3 (720x576) VBR
Audio:
Not specified (Dolby AC3, 2 ch)

VTS_06 :
Play Length: 00:09:42
Video: PAL 4:3 (720x576) VBR
Audio:
Not specified (Dolby AC3, 2 ch)

VTS_07 :
Play Length: 00:09:36
Video: PAL 4:3 (720x576) VBR
Audio:
Not specified (Dolby AC3, 2 ch)

VTS_08 :
Play Length: 00:09:18
Video: PAL 4:3 (720x576) VBR
Audio:
Not specified (Dolby AC3, 2 ch)

VTS_09 :
Play Length: 00:09:18
Video: PAL 4:3 (720x576) VBR
Audio:
Not specified (Dolby AC3, 2 ch)

VTS_10 :
Play Length: 00:09:00
Video: PAL 4:3 (720x576) VBR
Audio:
Not specified (Dolby AC3, 2 ch)

VTS_11 :
Play Length: 00:09:18
Video: PAL 4:3 (720x576) VBR
Audio:
Not specified (Dolby AC3, 2 ch)
Общее
Полное имя : E:\Bolek i Lelek\Bolek a Lolek mezi horniky\VIDEO_TS\VTS_02_2.VOB
Формат : MPEG-PS
Размер файла : 1024 Мбайт
Продолжительность : 16 м.
Общий поток : 8518 Кбит/сек

Видео
Идентификатор : 224 (0xE0)
Формат : MPEG-4 Visual
Параметр BVOP формата : Да
Параметр QPel формата : Нет
Параметр GMC формата : Без точки перехода
Параметр матрицы формата : Default (H.263)
Продолжительность : 16 м.
Битрейт : 7965 Кбит/сек
Цветовое пространство : YUV
Битовая глубина : 14 бит
Тип развёртки : Прогрессивная
Метод сжатия : С потерями
Размер потока : 957 Мбайт (93%)

Аудио
Идентификатор : 189 (0xBD)-128 (0x80)
Формат : AC-3
Формат/Информация : Audio Coding 3
Расширение режима : CM (complete main)
Параметр Endianness формата : Big
Режим смешивания : DVD-Video
Продолжительность : 16 м.
Вид битрейта : Постоянный
Битрейт : 384 Кбит/сек
Каналы : 2 канала
Расположение каналов : Front: L R
Частота : 48,0 КГц
Битовая глубина : 16 бит
Метод сжатия : С потерями
Задержка видео : -560 мс.
Размер потока : 46,2 Мбайт (5%)

Меню
Бонусы: нет
Скриншоты:
Болек и Лелек. Канарейка / Bolek i Lolek. Kanarek (1972-1980)
Страна: Польша
Жанр: Детский, Комедия, Мультфильм
Продолжительность: 01:04:23
Год выпуска: 1972-1980
Перевод: Не требуется
Русские субтитры: нет

Режиссёр: Владислав Нагребецки / Władysław Nehrebecki
Описание: Веселые приключения двух неунывающих друзей Болека и Лелека от польской студии рисованных мультфильмов "Бельска Бяла" ("Bielsku- Bialej").

Качество: DVD5
Формат: DVD-video
Видео: PAL 4:3 (720x576) VBR 25.00fps 6000Kbps
Аудио: Polish Dolby AC3 48000Hz 6ch 448Kbps
Субтитры: отсутствуют
1. Крещение на экваторе / Chrzest na rowniku
2. Дельтаплан / Lotnia
3. Таинственный план / Tajemniczy plan
4. Оленёнок / Sarenka
5. На озере / Nad jeziorem
6. Канарейка / Kanarek
7. На диком Западе / Na Dzikim Zachodzie
Title: Íîâûé òîì
Size: 3.02 Gb ( 3 163 374 KBytes ) - DVD-5
Enabled regions: 1, 2, 3, 4, 5, 6, 7, 8

VTS_01 :
Play Length: 01:04:23
Video: PAL 4:3 (720x576) VBR
Audio:
Polish (Dolby AC3, 6 ch)

VTS_02 :
Play Length:
Video: PAL 4:3 (720x576) VBR
Audio:
Polish (Dolby AC3, 2 ch)
Общее
Полное имя : E:\Bolek i Lelek\BOLEK I LOLEK - Kanarek\VIDEO_TS\VTS_01_2.VOB
Формат : MPEG-PS
Размер файла : 1024 Мбайт
Продолжительность : 21 м.
Общий поток : 6565 Кбит/сек

Видео
Идентификатор : 224 (0xE0)
Формат : MPEG Video
Версия формата : Version 2
Профиль формата : Main@Main
Параметр BVOP формата : Да
Параметр матрицы формата : Выборочная
Параметр GOP формата : M=3, N=15
Продолжительность : 21 м.
Битрейт : 6000 Кбит/сек
Ширина : 720 пикселей
Высота : 576 пикселей
Соотношение сторон : 4:3
Частота кадров : 25,000 кадров/сек
Стандарт вещания : PAL
Цветовое пространство : YUV
Субдискретизация насыщенности : 4:2:0
Битовая глубина : 8 бит
Тип развёртки : Чересстрочная
Порядок развёртки : Верхнее поле первое
Метод сжатия : С потерями
Бит/(Пиксели*Кадры) : 0.579
Размер потока : 934 Мбайт (91%)

Аудио
Идентификатор : 189 (0xBD)-128 (0x80)
Формат : AC-3
Формат/Информация : Audio Coding 3
Расширение режима : CM (complete main)
Параметр Endianness формата : Big
Режим смешивания : DVD-Video
Продолжительность : 21 м.
Вид битрейта : Постоянный
Битрейт : 448 Кбит/сек
Каналы : 6 каналов
Расположение каналов : Front: L C R, Side: L R, LFE
Частота : 48,0 КГц
Битовая глубина : 16 бит
Метод сжатия : С потерями
Задержка видео : -368 мс.
Размер потока : 69,9 Мбайт (7%)

Меню
Доп. материалы: Реклама других дисков про Болека и Лелека
Доп. информация: Диск найден в сети. По мнению grandparazit, составившего каталог раздающихся на трекере мультфильмов про Болека и Лелека (в этой раздаче http:// .org/forum/viewtopic.php?t=3735739), в этом сборнике есть серии, которые не вошли в официальные издания, например, серия "На диком Западе" из цикла Болек и Лелек вокруг света. И серия Chrzest na równiku (Крещение на экваторе) тоже не вошла в 10-дисковое издание "Приключения Болека и Лелека". Кроме этого там есть серия Sarenka (Оленёнок) с 6-го диска "Приключения Болека и Лелека", но как раз этого диска на трекере тоже нет. Поэтому решил, что данный диск, возможно, кому-нибудь будет интересен.
Скриншоты:
Болека и Лелек. Морская прогулка / Bolek i Lolek. Morska wyprawa (1972-1980)
Год выпуска: 1984
Страна: Польша
Жанр: мультфильм
Продолжительность: 01:33:00
Перевод: Не требуется
Русские субтитры: нет

Режиссер: Алфред Ледвиг

В ролях: Болек и Лелек

Описание: Хорошо знакомые и горячо любимые всеми веселые приятели Болек и Лелек никогда не сидят без дела. Они самые непоседливые и любознательные выдумщики на свете. Болек и Лелек обожают приключения и постоянно попадают в забавные ситуации, из которых непросто выпутаться. Состоит из:

Качество: DVD5
Формат: DVD Video
Видео кодек: MPEG2
Аудио кодек: AC3
Видео: PAL 4:3 (720x576) VBR
Аудио: English (Dolby AC3, 2 ch)
1. Летний лагерь
2. Прогульщик
3. Игра в прятки
4. Бродячий цирк
5. Летние маршруты
6. Полеты
7. Морская прогулка
8. Счастливого пути
9. В лесу
Title: Íîâûé òîì
Size: 4.36 Gb ( 4 568 962 KBytes ) - DVD-5
Enabled regions: 1, 2, 3, 4, 5, 6, 7, 8

VTS_01 :
Play Length: 00:00:14+00:00:10+01:20:43+00:02:07
Video: PAL 4:3 (720x576) VBR
Audio:
English (Dolby AC3, 2 ch)
Общее
Полное имя : E:\Bolek i Lelek\Morskay progulka Bolekai Leleka CD6\VIDEO_TS\VTS_01_1.VOB
Формат : MPEG-PS
Размер файла : 1024 Мбайт
Продолжительность : 19 м.
Режим общего битрейта : Переменный
Общий поток : 7281 Кбит/сек

Видео
Идентификатор : 224 (0xE0)
Формат : MPEG Video
Версия формата : Version 2
Профиль формата : Main@Main
Параметр BVOP формата : Да
Параметр матрицы формата : По умолчанию
Параметр GOP формата : M=3, N=15
Продолжительность : 19 м.
Вид битрейта : Переменный
Битрейт : 6944 Кбит/сек
Максимальный битрейт : 9000 Кбит/сек
Ширина : 720 пикселей
Высота : 576 пикселей
Соотношение сторон : 4:3
Частота кадров : 25,000 кадров/сек
Стандарт вещания : PAL
Цветовое пространство : YUV
Субдискретизация насыщенности : 4:2:0
Битовая глубина : 8 бит
Тип развёртки : Чересстрочная
Порядок развёртки : Нижнее поле первое
Метод сжатия : С потерями
Бит/(Пиксели*Кадры) : 0.670
Размер потока : 976 Мбайт (95%)

Аудио
Идентификатор : 189 (0xBD)-128 (0x80)
Формат : AC-3
Формат/Информация : Audio Coding 3
Расширение режима : CM (complete main)
Параметр Endianness формата : Big
Режим смешивания : DVD-Video
Продолжительность : 5 с. 760 мс.
Вид битрейта : Постоянный
Битрейт : 192 Кбит/сек
Каналы : 2 канала
Расположение каналов : Front: L R
Частота : 48,0 КГц
Битовая глубина : 16 бит
Метод сжатия : С потерями
Размер потока : 135 Кбайт (0%)

Меню
Бонусы: смотрите на ДВД
Скриншоты:
Болек и Лелек. Спортивные приключения / Sportowe przygody Bolka i Lolka (1972-1980)
Год выпуска: 1964
Страна: Польша
Жанр: мультфильм
Продолжительность: 01:14:00
Перевод: Не требуется
Русские субтитры: нет

Режиссер: Алфред Ледвиг

В ролях: Болек и Лелек

Описание: И снова маленькие сорванцы вместе теперь в спортивных состязаниях. Соревнования тем не мене не влияют на их дружбу и взаимовыручку. Забавно смотреть и детям и взрослым на то как наши маленькие друзья преодолевают возникшие на их пути препятствия.

Качество: DVD5
Формат: DVD Video
Видео кодек: MPEG2
Аудио кодек: AC3
Видео: PAL 4:3 (720x576) VBR
Аудио: Not specified (Dolby AC3, 2 ch)
1. Большой матч
2. Путешествие на каяки
3. Бег по пересеченной местности
4. Полеты
5. Спортсмены
6. Прогулка в горы
7. Приключения на двух колесах
8. Зимние состязания
Title: Íîâûé òîì
Size: 4.03 Gb ( 4 230 016 KBytes ) - DVD-5
Enabled regions: 1, 2, 3, 4, 5, 6, 7, 8

VTS_01 :
Play Length: 01:15:17
Video: PAL 4:3 (720x576) VBR
Audio:
Not specified (Dolby AC3, 2 ch)
Общее
Полное имя : E:\Bolek i Lelek\Sportivnie priclyucheniy Boleka i Leleka CD5\VIDEO_TS\VTS_01_1.VOB
Формат : MPEG-PS
Размер файла : 1024 Мбайт
Продолжительность : 1 м. 23 с.
Общий поток : 103 Мбит/сек

Видео
Идентификатор : 224 (0xE0)
Формат : MPEG Video
Версия формата : Version 2
Профиль формата : Main@Main
Параметр BVOP формата : Да
Параметр матрицы формата : Выборочная
Параметр GOP формата : M=3, N=15
Продолжительность : 1 м. 23 с.
Битрейт : 100 Мбит/сек
Максимальный битрейт : 7000 Кбит/сек
Ширина : 720 пикселей
Высота : 576 пикселей
Соотношение сторон : 4:3
Частота кадров : 25,000 кадров/сек
Стандарт вещания : PAL
Цветовое пространство : YUV
Субдискретизация насыщенности : 4:2:0
Битовая глубина : 8 бит
Тип развёртки : Чересстрочная
Порядок развёртки : Верхнее поле первое
Метод сжатия : С потерями
Бит/(Пиксели*Кадры) : 9.673
Размер потока : 1001 Мбайт (98%)

Аудио
Идентификатор : 189 (0xBD)-128 (0x80)
Формат : AC-3
Формат/Информация : Audio Coding 3
Расширение режима : CM (complete main)
Параметр Endianness формата : Big
Режим смешивания : DVD-Video
Продолжительность : 1 м. 23 с.
Вид битрейта : Постоянный
Битрейт : 192 Кбит/сек
Каналы : 2 канала
Расположение каналов : Front: L R
Частота : 48,0 КГц
Битовая глубина : 16 бит
Метод сжатия : С потерями
Задержка видео : -64 мс.
Размер потока : 1,91 Мбайт (0%)

Меню
Бонусы: нет
Скриншоты:
Болек и Лелек. Скрещенные шпаги / Bolek i Lolek. Skrzyzowane szpady (1963 - 1964)
Год выпуска: 1964
Страна: Польша
Жанр: мультфильм
Продолжительность: 00:56:00
Перевод: Не требуется
Русские субтитры: нет

Режиссер: Владислав Негребецки

В ролях: Болек и Лелек

Описание: Удивительные и невероятные приключения Болека и Лелека. Польским мультипликаторам удалось создать подлинный бестселлер. Несколько поколений детишек с огромным интересом следят за жизнью неугомонных друзей. Прекрасный добрый и веселый мультик, развивающий у детей смекалку и интерес к приключениям. По популярности не уступает нашему «Ну погоди».

Качество: DVD5
Формат: DVD Video
Видео кодек: MPEG2
Аудио кодек: AC3
Видео: PAL 4:3 (720x576) VBR
Аудио: English (Dolby AC3, 2 ch)
1. Арбалет
2. Снежный человек
3. Храбрый ковбой
4. Скрещенные шпаги
5. Укротитель зверей
6. Коррида
Title: Íîâûé òîì
Size: 3.60 Gb ( 3 776 058 KBytes ) - DVD-5
Enabled regions: 1, 2, 3, 4, 5, 6, 7, 8

VTS_01 :
Play Length: 00:00:14+00:00:10+00:54:24+00:02:07
Video: PAL 4:3 (720x576) VBR
Audio:
English (Dolby AC3, 2 ch)
Общее
Полное имя : E:\Bolek i Lelek\Bolek i Lolek skrechenie shpagi CD4\VIDEO_TS\VTS_01_1.VOB
Формат : MPEG-PS
Размер файла : 1024 Мбайт
Продолжительность : 16 м.
Режим общего битрейта : Переменный
Общий поток : 8911 Кбит/сек

Видео
Идентификатор : 224 (0xE0)
Формат : MPEG Video
Версия формата : Version 2
Профиль формата : Main@Main
Параметр BVOP формата : Да
Параметр матрицы формата : По умолчанию
Параметр GOP формата : M=3, N=15
Продолжительность : 16 м.
Вид битрейта : Переменный
Битрейт : 8541 Кбит/сек
Максимальный битрейт : 9000 Кбит/сек
Ширина : 720 пикселей
Высота : 576 пикселей
Соотношение сторон : 4:3
Частота кадров : 25,000 кадров/сек
Стандарт вещания : PAL
Цветовое пространство : YUV
Субдискретизация насыщенности : 4:2:0
Битовая глубина : 8 бит
Тип развёртки : Чересстрочная
Порядок развёртки : Нижнее поле первое
Метод сжатия : С потерями
Бит/(Пиксели*Кадры) : 0.824
Размер потока : 981 Мбайт (96%)

Аудио
Идентификатор : 189 (0xBD)-128 (0x80)
Формат : AC-3
Формат/Информация : Audio Coding 3
Расширение режима : CM (complete main)
Параметр Endianness формата : Big
Режим смешивания : DVD-Video
Продолжительность : 4 с. 512 мс.
Вид битрейта : Постоянный
Битрейт : 192 Кбит/сек
Каналы : 2 канала
Расположение каналов : Front: L R
Частота : 48,0 КГц
Битовая глубина : 16 бит
Метод сжатия : С потерями
Размер потока : 106 Кбайт (0%)

Меню
Бонусы: нет
Скриншоты:
Болек и Лелек. Сказки / Bajki Bolka i Lolka (1970-1971)
Год выпуска: 1964, 1970-1971
Страна: Польша
Жанр: Детский, Комедия, Мультфильм
Продолжительность: 01:34:24
Перевод: Не требуется
Русские субтитры: нет

Режиссер: Alfred Ledwig, Lechosław Marszałek etc.

В ролях: Болек и Лелек

Описание:
Кто из нас не знает Мальчика-с-пальчика, гадкого утенка или Красную Шапочку? Волшебные замки, заколдованные принцессы, летающие драконы, храбрые рыцари - это сказочный мир, где Болек и Лелек ждут нас. Мы отправляемся в волшебную страну сказок. Вместе с нашими героями у нас будут невероятные приключения, мы узнаем сказочные тайны, совершим интересные открытия и отважные проделки.

Качество: DVD5
Формат: DVD Video
Видео кодек: MPEG2
Аудио кодек: AC3
Видео: PAL 4:3 (720x576) VBR
Аудио: Polish (Dolby AC3, 6 ch)
Субтитры: немецкие, чешские, английские
1. Снежная королева / Sněhová královna / Królowa Śniegu
2. Заколдованный замок / Zakletý zámek / Zaklęty zamek
3. Гадкий утёнок / Ošklivé kačátko / Brzydkie kaczątko
4. Туфелька Золушки / Popelka / Pantofelek Kopciuszka
5. Баба-Яга / Baba Jaga / Baba Jaga
6. Волшебное зеркало / Čarodějovo zrcadlo
7. Дракон / Drak / Smok
8. Красная Шапочка / Červená Karkulka / Czerwony Kapturek
9. Золотая рыбка / Zlatá rybka / Złota rybka
10. Два рыцаря / Dva rytíři / Dwaj rycerze
Title: Íîâûé òîì
Size: 4.11 Gb ( 4 314 116 KBytes ) - DVD-5
Enabled regions: 1, 2, 3, 4, 5, 6, 7, 8

VTS_01 :
Play Length: 00:01:26+00:02:24+00:01:17+00:01:34+00:01:22+00:03:43+00:05:08+00:01:39+00:01:37+00:01:59+00:01:36+01:34:24
Video: PAL 4:3 (720x576) VBR
Audio:
Polish (Dolby AC3, 6 ch)
Subtitles:
English
Deutsch
Czech(Ceske)
Общее
Полное имя : E:\Bolek i Lelek\Skazki Boleka i Leleka\VIDEO_TS\VTS_01_1.VOB
Формат : MPEG-PS
Размер файла : 1024 Мбайт
Продолжительность : 3 м. 44 с.
Общий поток : 38,2 Мбит/сек

Видео
Идентификатор : 224 (0xE0)
Формат : MPEG Video
Версия формата : Version 2
Профиль формата : Main@Main
Параметр BVOP формата : Да
Параметр матрицы формата : Выборочная
Параметр GOP формата : M=3, N=15
Продолжительность : 3 м. 44 с.
Битрейт : 37,0 Мбит/сек
Максимальный битрейт : 5000 Кбит/сек
Ширина : 720 пикселей
Высота : 576 пикселей
Соотношение сторон : 4:3
Частота кадров : 25,000 кадров/сек
Стандарт вещания : PAL
Цветовое пространство : YUV
Субдискретизация насыщенности : 4:2:0
Битовая глубина : 8 бит
Тип развёртки : Чересстрочная
Порядок развёртки : Верхнее поле первое
Метод сжатия : С потерями
Бит/(Пиксели*Кадры) : 3.571
Размер потока : 992 Мбайт (97%)

Аудио
Идентификатор : 189 (0xBD)-128 (0x80)
Формат : AC-3
Формат/Информация : Audio Coding 3
Расширение режима : CM (complete main)
Параметр Endianness формата : Big
Режим смешивания : DVD-Video
Продолжительность : 3 м. 44 с.
Вид битрейта : Постоянный
Битрейт : 448 Кбит/сек
Каналы : 6 каналов
Расположение каналов : Front: L C R, Side: L R, LFE
Частота : 48,0 КГц
Битовая глубина : 16 бит
Метод сжатия : С потерями
Задержка видео : -80 мс.
Размер потока : 12,0 Мбайт (1%)

Меню
Бонусы: нет
Доп. информация: Это польское издание Bajki Bolka i Lolka, чешское издание Pohádky Bolka a Lolka идентично по содержанию - те же 10 серий, схожие обложки дисков, те же языки субтитров, вероятно, кто-то из них (или поляки или чехи) выпустил диск на основе других.
Скриншоты:
Болек и Лелек. Сказки / Bajki Bolka i Lolka (1986)
Год выпуска: 1986
Страна: Польша
Жанр: мультфильм
Продолжительность: 01:08:00
Перевод: Профессиональный (одноголосый)
Русские субтитры: нет

Режиссер: Бронислав Зееман

Описание: Кто из нас не знает Мальчика-с-пальчик? Гадкого Утенка или Красную Шапочку? Волшебные замки, заколдованные принцессы, летающие драконы, храбрые рыцари - это сказочный мир, где Болек и Лелек ждут нас. Мы отправляемся в волшебную страну сказок. Вместе с нашими героями у нас будут невероятные приключения, мы узнаем сказочные тайны, совершим интересные открытия и отважные проделки.

Автор сценария: Анжей Оржечовски и Бронислав Зееман
Режиссер: Бронислав Зееман

Качество: DVD5
Формат: DVD Video
Видео кодек: MPEG2
Аудио кодек: AC3
Видео: PAL 720x576 (4:3) 25.00fps
Аудио: русский (AC3 2ch 192Kbps)
1 Волшебная страна сказок
2 Космическое путешествие
3 Праздничный бал
4 Заколдованный замок
5 Хитрый вор
6 В гости к бабушке
7 Сказочное озеро
Title: Íîâûé òîì
Size: 4.27 Gb ( 4 476 012 KBytes ) - DVD-5
Enabled regions: 1, 2, 3, 4, 5, 6, 7, 8

VTS_01 :
Play Length: 00:00:14+01:04:35+00:00:46+00:01:49
Video: PAL 4:3 (720x576) VBR
Audio:
English (Dolby AC3, 2 ch)
Общее
Полное имя : E:\Bolek i Lelek\Сказки Лёлека и Болека\VTS_01_2.VOB
Формат : MPEG-PS
Размер файла : 1024 Мбайт
Продолжительность : 16 м.
Режим общего битрейта : Переменный
Общий поток : 8836 Кбит/сек

Видео
Идентификатор : 224 (0xE0)
Формат : MPEG Video
Версия формата : Version 2
Профиль формата : Main@Main
Параметр BVOP формата : Да
Параметр матрицы формата : По умолчанию
Параметр GOP формата : M=3, N=15
Продолжительность : 16 м.
Вид битрейта : Переменный
Битрейт : 8468 Кбит/сек
Максимальный битрейт : 9500 Кбит/сек
Ширина : 720 пикселей
Высота : 576 пикселей
Соотношение сторон : 4:3
Частота кадров : 25,000 кадров/сек
Стандарт вещания : PAL
Цветовое пространство : YUV
Субдискретизация насыщенности : 4:2:0
Битовая глубина : 8 бит
Тип развёртки : Чересстрочная
Порядок развёртки : Нижнее поле первое
Метод сжатия : С потерями
Бит/(Пиксели*Кадры) : 0.817
Размер потока : 981 Мбайт (96%)

Аудио
Идентификатор : 189 (0xBD)-128 (0x80)
Формат : AC-3
Формат/Информация : Audio Coding 3
Расширение режима : CM (complete main)
Параметр Endianness формата : Big
Режим смешивания : DVD-Video
Продолжительность : 16 м.
Вид битрейта : Постоянный
Битрейт : 192 Кбит/сек
Каналы : 2 канала
Расположение каналов : Front: L R
Частота : 48,0 КГц
Битовая глубина : 16 бит
Метод сжатия : С потерями
Задержка видео : -184 мс.
Размер потока : 22,2 Мбайт (2%)

Меню
Бонусы: смотрите на ДВД
Скриншоты:
Болек и Лелек. На диком Западе / Bolek i Lolek na Dzikim Zachodzie / Bolek a Lolek na divokem Zapade (1972)
Год выпуска: 1971-1972
Страна: Польша
Жанр: Детский, Комедия, Мультфильм
Продолжительность: 01:05:42
Перевод: Не требуется
Русские субтитры: нет

Режиссер: Станислав Дюлц / Stanisław Dülz, Владислав Нехребецки / Władysław Nehrebecki, Вацлав Вайсер / Wacław Wajser, Бронислав Земан / Bronisław Zeman

В ролях: Болек и Лелек

Описание:
На этот раз мы с нашими друзьями и Лелеком и Болеком посетим опасный дикий Запад. Мы вместе с героями промчимся на похищенном экспрессе, пройдем по стопам индейского идола, встретимся с похитителем лошадей, будем отстаивать букву закона, и все это на далеком диком Западе...
Присоединяйтесь к нашим героям и получите массу незабываемых впечатлений!
Болек и Лелек на Диком Западе, возможно, только начало...

Качество: DVD5
Формат: DVD Video
Видео кодек: MPEG2
Аудио кодек: AC3
Видео: PAL 4:3 (720x576) VBR
Аудио: Polish (Dolby AC3, 2 ch) 384 Кбит/сек
Субтитры: Польские, немецкие, чешские, английские, французские, испанские
1. Стражи закона / Ochránci zákonů/ Obrońcy prawa (1971)
2. Гроза Техаса / Postrach v Texasu / Postrach Teksasu (1972)
3. Погоня / Honička / Pościg (1972)
4. Похищенный экспресс / Unesený expres / Porwany ekspres (1972)
5. Конокрад / Lupiči koní / Koniokrad (1972)
6. Следопыты / Stopaři / Tropiciele (1972)
7. Индейский идол / Indiánský bůh / Indiański bożek (1972)
Title: Íîâûé òîì
Size: 3.05 Gb ( 3 201 056 KBytes ) - DVD-5
Enabled regions: 1, 2, 3, 4, 5, 6

VTS_01 :
Play Length: 00:00:09
Video: PAL 4:3 (720x576) VBR
Audio:
Polish (Dolby AC3, 2 ch)

VTS_02 :
Play Length: 01:05:42
Video: PAL 4:3 (720x576) VBR
Audio:
Polish (Dolby AC3, 2 ch)
Subtitles:
Polish
Deutsch
Czech(Ceske)
English
Francais
Espanol

VTS_03 :
Play Length: 00:00:10
Video: PAL 4:3 (720x576) VBR
Subtitles:
Polish
Deutsch
Czech(Ceske)
English
Francais
Espanol

VTS_04 :
Play Length: 00:00:10
Video: PAL 4:3 (720x576) VBR
Subtitles:
Polish
Deutsch
Czech(Ceske)
English
Francais
Espanol

VTS_05 :
Play Length: 00:00:10
Video: PAL 4:3 (720x576) VBR
Subtitles:
Polish
Deutsch
Czech(Ceske)
English
Francais
Espanol

VTS_06 :
Play Length: 00:00:10
Video: PAL 4:3 (720x576) VBR
Subtitles:
Polish
Deutsch
Czech(Ceske)
English
Francais
Espanol

VTS_07 :
Play Length: 00:00:10
Video: PAL 4:3 (720x576) VBR
Subtitles:
Polish
Deutsch
Czech(Ceske)
English
Francais
Espanol

VTS_08 :
Play Length: 00:00:10
Video: PAL 4:3 (720x576) VBR
Subtitles:
Polish
Deutsch
Czech(Ceske)
English
Francais
Espanol
Общее
Полное имя : E:\Bolek i Lelek\Bolek i Lelek na dikom Zapade\VIDEO_TS\VTS_02_1.VOB
Формат : MPEG-PS
Размер файла : 1024 Мбайт
Продолжительность : 22 м.
Общий поток : 6498 Кбит/сек

Видео
Идентификатор : 224 (0xE0)
Формат : MPEG Video
Версия формата : Version 2
Профиль формата : Main@Main
Параметр BVOP формата : Да
Параметр матрицы формата : Выборочная
Параметр GOP формата : M=3, N=15
Продолжительность : 22 м.
Битрейт : 6000 Кбит/сек
Ширина : 720 пикселей
Высота : 576 пикселей
Соотношение сторон : 4:3
Частота кадров : 25,000 кадров/сек
Стандарт вещания : PAL
Цветовое пространство : YUV
Субдискретизация насыщенности : 4:2:0
Битовая глубина : 8 бит
Тип развёртки : Чересстрочная
Порядок развёртки : Верхнее поле первое
Метод сжатия : С потерями
Бит/(Пиксели*Кадры) : 0.579
Размер потока : 943 Мбайт (92%)

Аудио
Идентификатор : 189 (0xBD)-128 (0x80)
Формат : AC-3
Формат/Информация : Audio Coding 3
Расширение режима : CM (complete main)
Параметр Endianness формата : Big
Режим смешивания : DVD-Video
Продолжительность : 22 м.
Вид битрейта : Постоянный
Битрейт : 384 Кбит/сек
Каналы : 2 канала
Расположение каналов : Front: L R
Частота : 48,0 КГц
Битовая глубина : 16 бит
Метод сжатия : С потерями
Задержка видео : -80 мс.
Размер потока : 60,5 Мбайт (6%)

Текст
Идентификатор : 189 (0xBD)-33 (0x21)
Формат : RLE
Формат/Информация : Run-length encoding
Режим смешивания : DVD-Video
Задержка видео : 2 с. 440 мс.

Меню
Бонусы: нет
Доп. информация: Это чешское издание Bolek a Lolek na divokém Západě (Urania).
Скриншоты:
Игры Болека и Лелека / Bolek a Lolek si hrají / Zabawy Bolka i Lolka
Год выпуска: 1975-1976
Страна: Польша
Жанр: Детский, Комедия, Мультфильм
Продолжительность: 01:01:54
Перевод: Не требуется
Русские субтитры: нет

Режиссер: Marian Cholerek, Zdzisław Kudła, Franciszek Pyter, Wacław Wajser, Józef Byrdy, Edward Wątor, Romuald Kłys

В ролях: Болек и Лелек

Описание: Мультфильм из знаменитой польской серии о приключениях озорных друзей Болека и Лелека.

Качество: DVD5
Формат: DVD Video
Видео кодек: MPEG2
Аудио кодек: AC3
Видео: PAL 4:3 (720x576) VBR
Аудио: Polish (Dolby AC3, 2 ch)
Субтитры: Польские, немецкие, чешские, английские, французские, испанские
1. Картинг / Gokarty
2. Необычное открытие / Niezwykłe odkrycie
3. Аты-баты, шли солдаты / Maszeruje wojsko
4. Маленькие режиссёры / Mali filmowcy
5. Неудачливые няньки / Niefortunne niańki
6. Защитники животных / Opiekunowie zwierząt
7. Чёрная дама / Czarna Dama
Title: Íîâûé òîì
Size: 3.75 Gb ( 3 931 842 KBytes ) - DVD-5
Enabled regions: 1, 2, 3, 4, 5, 6, 7, 8

VTS_01 :
Play Length: 00:00:09
Video: PAL 4:3 (720x576) VBR
Audio:
Polish (Dolby AC3, 2 ch)

VTS_02 :
Play Length: 01:01:54
Video: PAL 4:3 (720x576) VBR
Audio:
Polish (Dolby AC3, 2 ch)
Subtitles:
Polish
Deutsch
Czech(Ceske)
English
Francais
Espanol

VTS_03 :
Play Length: 00:00:10
Video: PAL 4:3 (720x576) VBR
Subtitles:
Polish
Deutsch
Czech(Ceske)
English
Francais
Espanol

VTS_04 :
Play Length: 00:00:10
Video: PAL 4:3 (720x576) VBR
Subtitles:
Polish
Deutsch
Czech(Ceske)
English
Francais
Espanol

VTS_05 :
Play Length: 00:00:10
Video: PAL 4:3 (720x576) VBR
Subtitles:
Polish
Deutsch
Czech(Ceske)
English
Francais
Espanol

VTS_06 :
Play Length: 00:00:10
Video: PAL 4:3 (720x576) VBR
Subtitles:
Polish
Deutsch
Czech(Ceske)
English
Francais
Espanol

VTS_07 :
Play Length: 00:00:10
Video: PAL 4:3 (720x576) VBR
Subtitles:
Polish
Deutsch
Czech(Ceske)
English
Francais
Espanol

VTS_08 :
Play Length: 00:00:10
Video: PAL 4:3 (720x576) VBR
Subtitles:
Polish
Deutsch
Czech(Ceske)
English
Francais
Espanol
Общее
Полное имя : E:\Bolek i Lelek\Igry Boleka i Leleka\VIDEO_TS\VTS_02_1.VOB
Формат : MPEG-PS
Размер файла : 1024 Мбайт
Продолжительность : 16 м.
Режим общего битрейта : Переменный
Общий поток : 8515 Кбит/сек

Видео
Идентификатор : 224 (0xE0)
Формат : MPEG Video
Версия формата : Version 2
Профиль формата : Main@Main
Параметр BVOP формата : Да
Параметр матрицы формата : Выборочная
Параметр GOP формата : M=3, N=15
Продолжительность : 16 м.
Вид битрейта : Переменный
Битрейт : 7962 Кбит/сек
Ширина : 720 пикселей
Высота : 576 пикселей
Соотношение сторон : 4:3
Частота кадров : 25,000 кадров/сек
Стандарт вещания : PAL
Цветовое пространство : YUV
Субдискретизация насыщенности : 4:2:0
Битовая глубина : 8 бит
Тип развёртки : Чересстрочная
Порядок развёртки : Верхнее поле первое
Метод сжатия : С потерями
Бит/(Пиксели*Кадры) : 0.768
Размер потока : 957 Мбайт (94%)

Аудио
Идентификатор : 189 (0xBD)-128 (0x80)
Формат : AC-3
Формат/Информация : Audio Coding 3
Расширение режима : CM (complete main)
Параметр Endianness формата : Big
Режим смешивания : DVD-Video
Продолжительность : 16 м.
Вид битрейта : Постоянный
Битрейт : 384 Кбит/сек
Каналы : 2 канала
Расположение каналов : Front: L R
Частота : 48,0 КГц
Битовая глубина : 16 бит
Метод сжатия : С потерями
Задержка видео : -80 мс.
Размер потока : 46,2 Мбайт (5%)

Текст
Идентификатор : 189 (0xBD)-33 (0x21)
Формат : RLE
Формат/Информация : Run-length encoding
Режим смешивания : DVD-Video
Задержка видео : 560 мс.

Меню
Бонусы: нет
Доп. информация: Это чешское издание Bolek a Lolek si hrají.
Скриншоты:
Болек и Лёлик. Вокруг света 1,2 / Bolek i Lolek wyruszaja w swiat 1, 2 / Bolek i Lolek wyruszaja w swiat 1, 2 / Bolek and Lolek go round the world, part 1, 2
Год выпуска: 1968-1970
Страна: Польша
Жанр: Мультсериал
Продолжительность: 01:04:27 + 01:02:49
Перевод: Не требуется

Режиссер: Wladyslaw Nehrebecki, Leszek Mech

Описание: Приключения Болека и Лёлика вокруг света. Хорошо знакомые и горячо любимые всеми веселые приятели Болек и Лелек никогда не сидят без дела. Они самые непоседливые и любознательные выдумщики на свете. Болек и Лелек обожают приключения и постоянно попадают в забавные ситуации, из которых непросто выпутаться.
На этот раз мы с нашими друзьями Лелеком и Болеком отправимся вокруг света. Семь рассказов позволят нам ощутить себя участниками многих интересных событий. Вместе с нашими героями мы заглянем в Канаду, золотой город Инков, в пустыню Гоби и гробницу фараона, также побываем у подножия Килиманджаро в Африке.
Болек и Лелек вокруг света - присоединяйтесь к ним!

Качество: DVD5
Формат: DVD Video
Видео кодек: MPEG2
Аудио кодек: AC3
Видео: PAL 4:3 (720x576) VBR, 6000 Kbps, 25.000 fps
Аудио: Dolby AC3, 2 ch 384 Kbps, 48 KHz
Содержание диск 1:
русский / польский / чешский / английский
1. В лесах Канады / W puszczach Kanady / V pouštích Kanady / In the forest of Canada - 1968
2. Золотой город Инков / Złote miasto Inków / Zlaté město Inků / The gold town of Inkas - 1968
3. В песках Гоби / W piaskach Gobi / Na poušti Gobi / In the sands of Gobi - 1969
4. Гробница фараона / Grobowiec faraona / Hrobka Fraónů / The tomb of pharaones - 1970
5. По следам бенгальского тигра / Na tropach bengalskiego tygrysa / Po stopách bengálského tygra / On the treck of Bengal tiger
6. На склонах Килиманджаро / Na stokach Kilimandżaro / Na úpatí Kilimandžáro / On the slopes of Kilimanjaro - 1969
7. Гран-при Аргентины / Gran Premio Argentyny / Gran Premio Argentina / The Gran Premio of Argentina - 1969
Содержание диск 2:
Title: BOLEK_LOLEK_vokrug_sveta_1
Size: 3.00 Gb ( 3 140 534,00 KBytes ) - DVD-5
Enabled regions: 1, 2, 3, 4, 5, 6

VTS_01 :
Play Length: 00:00:09
Video: PAL 4:3 (720x576) VBR
Audio:
Polish (Dolby AC3, 2 ch)

VTS_02 :
Play Length: 01:04:27
Video: PAL 4:3 (720x576) VBR
Audio:
Polish (Dolby AC3, 2 ch)
Subtitles:
Polish
Deutsch
Czech(Ceske)
English
Francais
Espanol

VTS_03 :
Play Length: 00:00:10
Video: PAL 4:3 (720x576) VBR
Subtitles:
Polish
Deutsch
Czech(Ceske)
English
Francais
Espanol

VTS_04 :
Play Length: 00:00:10
Video: PAL 4:3 (720x576) VBR
Subtitles:
Polish
Deutsch
Czech(Ceske)
English
Francais
Espanol

VTS_05 :
Play Length: 00:00:10
Video: PAL 4:3 (720x576) VBR
Subtitles:
Polish
Deutsch
Czech(Ceske)
English
Francais
Espanol

VTS_06 :
Play Length: 00:00:10
Video: PAL 4:3 (720x576) VBR
Subtitles:
Polish
Deutsch
Czech(Ceske)
English
Francais
Espanol

VTS_07 :
Play Length: 00:00:10
Video: PAL 4:3 (720x576) VBR
Subtitles:
Polish
Deutsch
Czech(Ceske)
English
Francais
Espanol

VTS_08 :
Play Length: 00:00:10
Video: PAL 4:3 (720x576) VBR
Subtitles:
Polish
Deutsch
Czech(Ceske)
English
Francais
Espanol
Общее
Полное имя : F:\DVD\Bolek i Lelek\BOLEK_LOLEK_vokrug_sveta_1\VIDEO_TS\VTS_02_1.VOB
Формат : MPEG-PS
Размер файла : 1024 Мбайт
Продолжительность : 21 м.
Общий поток : 6508 Кбит/сек

Видео
Идентификатор : 224 (0xE0)
Формат : MPEG Video
Версия формата : Version 2
Профиль формата : Main@Main
Параметр BVOP формата : Да
Параметр матрицы формата : Выборочная
Параметр GOP формата : M=3, N=15
Продолжительность : 21 м.
Битрейт : 6000 Кбит/сек
Ширина : 720 пикселей
Высота : 576 пикселей
Соотношение сторон : 4:3
Частота кадров : 25,000 кадров/сек
Стандарт вещания : PAL
Цветовое пространство : YUV
Субдискретизация насыщенности : 4:2:0
Битовая глубина : 8 бит
Тип развёртки : Чересстрочная
Порядок развёртки : Верхнее поле первое
Метод сжатия : С потерями
Бит/(Пиксели*Кадры) : 0.579
Размер потока : 943 Мбайт (92%)

Аудио
Идентификатор : 189 (0xBD)-128 (0x80)
Формат : AC-3
Формат/Информация : Audio Coding 3
Расширение режима : CM (complete main)
Параметр Endianness формата : Big
Режим смешивания : DVD-Video
Продолжительность : 21 м.
Вид битрейта : Постоянный
Битрейт : 384 Кбит/сек
Каналы : 2 канала
Расположение каналов : Front: L R
Частота : 48,0 КГц
Битовая глубина : 16 бит
Метод сжатия : С потерями
Задержка видео : -80 мс.
Размер потока : 60,4 Мбайт (6%)

Текст
Идентификатор : 189 (0xBD)-33 (0x21)
Формат : RLE
Формат/Информация : Run-length encoding
Режим смешивания : DVD-Video
Задержка видео : 1 с. 440 мс.

Меню
Издание чешское - Bolek a Lolek vyrážejí do světa 1
Бонусы: нет
Папки в раздаче: BOLEK_LOLEK_vokrug_sveta_1, BOLEK_LOLEK_vokrug_sveta_2
Скриншоты:
Болек и Лелек / Jym & Jam / Bolek i Lolek (1972-1980) DVD5 (American version) Союз-видео
Болек и Лелек выпуск 1 CD9 / Bolek and Lolek issue 1 CD9
Год выпуска: 2007
Страна: Польша
Жанр: мультфильм
Продолжительность: 01:20:00
Перевод: Не требуется
Русские субтитры: нет

Режиссер: Здислав Кудла,Станислав Дулз,Воцлаф Вайзер

В ролях: Болек и Лелек
Описание: Болек и Лелек все делают вместе. Они находят самую настоящую машину времени, выигрывают на ярмарке магическое зеркало, попадают в Волшебную страну и будят спящую Красавицу ото сна.Закадычные друзья участвуют в спортивных состязаниях, лечат больного аиста и получают маленькую обезьянку в подарок.

Качество: DVD5
Формат: MPEG
Видео кодек: MPEG2
Аудио кодек: AC3
Видео: PAL 4:3 (720x576) VBR
Аудио: AC3, 2/0ch, 192Kbps, Delay -80 mSec
1 Волшебное зеркало
2 Тола приезжает в гости
3 Волшебный сундук
4 Мальчик с пальчик
5 Кросс
6 Обезьянка
7 Зимнее состязание
8 Печальный аист
Title: Íîâûé òîì
Size: 3.15 Gb ( 3 304 372 KBytes ) - DVD-5
Enabled regions: 5

VTS_01 :
Play Length: 00:00:13
Video: PAL 4:3 (720x576) VBR
Audio:
Russian (Dolby AC3, 6 ch)
Subtitles:
Russian

VTS_02 :
Play Length: 00:09:20
Video: PAL 4:3 (720x576) VBR
Audio:
Russian (Dolby AC3, 2 ch)
Subtitles:
Russian

VTS_03 :
Play Length: 00:09:31
Video: PAL 4:3 (720x576) VBR
Audio:
Russian (Dolby AC3, 2 ch)
Subtitles:
Russian

VTS_04 :
Play Length: 00:09:22
Video: PAL 4:3 (720x576) VBR
Audio:
Russian (Dolby AC3, 2 ch)
Subtitles:
Russian

VTS_05 :
Play Length: 00:09:31
Video: PAL 4:3 (720x576) VBR
Audio:
Russian (Dolby AC3, 2 ch)
Subtitles:
Russian

VTS_06 :
Play Length: 00:08:45
Video: PAL 4:3 (720x576) VBR
Audio:
Russian (Dolby AC3, 2 ch)
Subtitles:
Russian

VTS_07 :
Play Length: 00:08:51
Video: PAL 4:3 (720x576) VBR
Audio:
Russian (Dolby AC3, 2 ch)
Subtitles:
Russian

VTS_08 :
Play Length: 00:08:54
Video: PAL 4:3 (720x576) VBR
Audio:
Russian (Dolby AC3, 2 ch)
Subtitles:
Russian

VTS_09 :
Play Length: 00:08:52
Video: PAL 4:3 (720x576) VBR
Audio:
Russian (Dolby AC3, 2 ch)
Subtitles:
Russian

VTS_10 :
Play Length: 00:01:41
Video: PAL 4:3 (720x576) VBR
Audio:
Russian (Dolby AC3, 2 ch)
Subtitles:
Russian

VTS_11 :
Play Length: 00:01:17
Video: PAL 16:9 (720x576) VBR, Auto Pan&Scan
Audio:
Russian (Dolby AC3, 2 ch)
Subtitles:
Russian

VTS_12 :
Play Length: 00:02:31
Video: PAL 16:9 (720x576) VBR, Auto Pan&Scan
Audio:
Russian (Dolby AC3, 2 ch)
Subtitles:
Russian

VTS_13 :
Play Length: 00:01:52
Video: PAL 4:3 (720x576) VBR
Audio:
Russian (Dolby AC3, 2 ch)
Subtitles:
Russian

VTS_14 :
Play Length: 00:02:20
Video: PAL 16:9 (720x576) VBR, Auto Pan&Scan
Audio:
Russian (Dolby AC3, 2 ch)
Subtitles:
Russian
Общее
Полное имя : E:\Bolek i Lelek\Bolek i Lelek vipusk 1 CD9\VIDEO_TS\VTS_02_1.VOB
Формат : MPEG-PS
Размер файла : 353 Мбайт
Продолжительность : 9 м. 20 с.
Общий поток : 5291 Кбит/сек

Видео
Идентификатор : 224 (0xE0)
Формат : MPEG Video
Версия формата : Version 2
Профиль формата : Main@Main
Параметр BVOP формата : Да
Параметр матрицы формата : По умолчанию
Параметр GOP формата : M=2, N=15
Продолжительность : 9 м. 20 с.
Битрейт : 5000 Кбит/сек
Ширина : 720 пикселей
Высота : 576 пикселей
Соотношение сторон : 4:3
Частота кадров : 25,000 кадров/сек
Стандарт вещания : PAL
Цветовое пространство : YUV
Субдискретизация насыщенности : 4:2:0
Битовая глубина : 8 бит
Тип развёртки : Чересстрочная
Порядок развёртки : Верхнее поле первое
Метод сжатия : С потерями
Бит/(Пиксели*Кадры) : 0.482
Размер потока : 334 Мбайт (94%)
Основные цвета : BT.601 PAL
Характеристики трансфера : BT.470 System B, BT.470 System G
Коэффициенты матрицы : BT.601

Аудио
Идентификатор : 189 (0xBD)-128 (0x80)
Формат : AC-3
Формат/Информация : Audio Coding 3
Расширение режима : CM (complete main)
Параметр Endianness формата : Big
Режим смешивания : DVD-Video
Продолжительность : 9 м. 19 с.
Вид битрейта : Постоянный
Битрейт : 192 Кбит/сек
Каналы : 2 канала
Расположение каналов : Front: L R
Частота : 48,0 КГц
Битовая глубина : 16 бит
Метод сжатия : С потерями
Размер потока : 12,8 Мбайт (4%)

Меню
Бонусы: Смотрите на ДВД
Технические данные у дисков этой серии одинаковые
Скриншоты:
Болек и Лелек выпуск 2 CD7 / Bolek and Lolek №2 CD7
Год выпуска: 2007
Страна: Польша
Жанр: мультфильм
Продолжительность: 01:20:00
Перевод: Не требуется
Русские субтитры: нет

Режиссер: Здислав Кудла,Станислав Дулз,Воцлаф Вайзер

В ролях: Болек и Лелек
Описание: Болек и Лелек все делают вместе. Они находят самую настоящую машину времени, выигрывают на ярмарке магическое зеркало, попадают в Волшебную страну и будят спящую Красавицу ото сна.Закадычные друзья участвуют в спортивных состязаниях, лечат больного аиста и получают маленькую обезьянку в подарок.

Качество: DVD5
Формат: MPEG
Видео кодек: MPEG2
Аудио кодек: AC3
Видео: PAL 4:3 (720x576) VBR
Аудио: AC3, 2/0ch, 192Kbps, Delay -80 mSec
1. Друг для рыб
2. Фотолюбители
3. Волшебная лампа Алладина
4. Секретный план
5. Потерялась девочка
6. Воздушные змеи
Болек и Лелек выпуск 3 CD8 / Bolek and Lolek №3 CD8
Год выпуска: 2007
Страна: Польша
Жанр: мультфильм
Продолжительность: 01:20:00
Перевод: Не требуется
Русские субтитры: нет

Режиссер: Здислав Кудла,Станислав Дулз,Воцлаф Вайзер

В ролях: Болек и Лелек
Описание: Болек и Лелек все делают вместе. Они находят самую настоящую машину времени, выигрывают на ярмарке магическое зеркало, попадают в Волшебную страну и будят спящую Красавицу ото сна.Закадычные друзья участвуют в спортивных состязаниях, лечат больного аиста и получают маленькую обезьянку в подарок.

Качество: DVD5
Формат: MPEG
Видео кодек: MPEG2
Аудио кодек: AC3
Видео: PAL 4:3 (720x576) VBR
Аудио: AC3, 2/0ch, 192Kbps, Delay -80 mSec
1. Олененок
2. Фотограф - натуралист
3. Выходные на побережье
4. Кемпинг с Толой
5. День рождения Толы
6. Пожар
7. Туфелька Золушки
Болек и Лелек выпуск 4 CD10 / Bolek and Lolek issue 4 CD10
Год выпуска: 2007
Страна: Польша
Жанр: мультфильм
Продолжительность: 01:20:00
Перевод: Не требуется
Русские субтитры: нет

Режиссер: Здислав Кудла,Станислав Дулз,Воцлаф Вайзер

В ролях: Болек и Лелек
Описание: Болек и Лелек все делают вместе. Они находят самую настоящую машину времени, выигрывают на ярмарке магическое зеркало, попадают в Волшебную страну и будят спящую Красавицу ото сна.Закадычные друзья участвуют в спортивных состязаниях, лечат больного аиста и получают маленькую обезьянку в подарок.

Качество: DVD5
Формат: MPEG
Видео кодек: MPEG2
Аудио кодек: AC3
Видео: PAL 4:3 (720x576) VBR
Аудио: AC3, 2/0ch, 192Kbps, Delay -80 mSec
1 Кемпинг на ферме
2 Лесная ведьма
3 Игра в рыцарей
4 Дрессировка щенка
5 Освобождение принцессы
6 Вор
7 Гадкий утёнок
8 Юные садовники
Болек и Лелек. Приключения. Большое путешествие / Przygody Bolka i Lolka. Wielka podroz Bolka i Lolka (1972-1980) 12 х DVD5 CD Land
Страна: Польша
Жанр: Детский мультфильм
Продолжительность: Более 12 часов (00:55:46 + 00:53:47 + 00:53:58 + 00:52:10 + 00:55:52 + 00:55:54 + 00:54:36 + 00:54:40 + 01:12:27 + 01:12:46 + 01:20:18 + 01:10:04)
Год выпуска: 1972 - 1980
Перевод: Не требуется, Профессиональный (дублированный)
Режиссёр: Владислав Нагребецки / Wladyslaw Nehrebecki, Станислав Дульц / Stanislaw Dülz
Описание: Хорошо знакомые и горячо любимые всеми веселые приятели Болек и Лелек никогда не сидят без дела. Они самые непоседливые и любознательные выдумщики на свете. Болек и Лелек обожают приключения и постоянно попадают в забавные ситуации, из которых непросто выпутаться. Веселые приключения двух неунывающих друзей — настоящий шедевр мультипликации от польской студии рисованных мультфильмов «Бельска Бяла» (Studio Filmуw Rysunkowych «Bielsko-Biala»).
Доп. материалы: Отсутствуют
Доп. информация: Полное собрание всех 12-ти дисков, выпущенных "CD Land Video".
Качество: 12хDVD5
Формат: DVD-video
Видео: PAL 4:3 (720x576) VBR
Аудио: AC3, 2 ch, 192 kbps
Субтитры: Отсутствуют
Список серий:
Субтитры: нет
Title: Íîâûé òîì
Size: 2.95 Gb ( 3 091 294 KBytes ) - DVD-5
Enabled regions: 1, 2, 3, 4, 5, 6, 8

VTS_01 :
Play Length: 00:55:46
Video: PAL 4:3 (720x576) VBR
Audio:
Russian (Dolby AC3, 2 ch)
Общее
Полное имя :\Bolek i Lelek\Prikluchenija.Boleka.i.Lelika.1964-1979.DVD-5\Диск 01\VIDEO_TS\VTS_01_2.VOB
Формат : MPEG-PS
Размер файла : 1024 Мбайт
Продолжительность : 19 м.
Общий поток : 7316 Кбит/сек

Видео
Идентификатор : 224 (0xE0)
Формат : MPEG Video
Версия формата : Version 2
Профиль формата : Main@Main
Параметр BVOP формата : Да
Параметр матрицы формата : Выборочная
Параметр GOP формата : M=3, N=15
Продолжительность : 19 м.
Битрейт : 7000 Кбит/сек
Ширина : 720 пикселей
Высота : 576 пикселей
Соотношение сторон : 4:3
Частота кадров : 25,000 кадров/сек
Стандарт вещания : PAL
Цветовое пространство : YUV
Субдискретизация насыщенности : 4:2:0
Битовая глубина : 8 бит
Тип развёртки : Чересстрочная
Порядок развёртки : Верхнее поле первое
Метод сжатия : С потерями
Бит/(Пиксели*Кадры) : 0.675
Размер потока : 976 Мбайт (95%)

Аудио
Идентификатор : 189 (0xBD)-128 (0x80)
Формат : AC-3
Формат/Информация : Audio Coding 3
Расширение режима : CM (complete main)
Параметр Endianness формата : Big
Режим смешивания : DVD-Video
Продолжительность : 19 м.
Вид битрейта : Постоянный
Битрейт : 192 Кбит/сек
Каналы : 2 канала
Расположение каналов : Front: L R
Частота : 48,0 КГц
Битовая глубина : 16 бит
Метод сжатия : С потерями
Задержка видео : -232 мс.
Размер потока : 26,9 Мбайт (3%)

Меню
Бонусы: нет
Папка в раздаче: Prikluchenija.Boleka.i.Lelika.1964-1979.DVD-5
Скриншоты:
Каникулы Болека и Лелека 1 и 2 / Bolek i Lolek Na Wakacjach 1, 2 / Bolek a Lolek na prázdninách 1, 2
Год выпуска: 1965, 1966
Страна: Польша
Жанр: Детский, Комедия, Мультфильм
Продолжительность: 01:03:52 + 01:04:02
Перевод: Не требуется
Русские субтитры: нет

Режиссер: Альфред Ледвиг / Alfred Ledwig

В ролях: Болек и Лелек

Описание: Мультфильм из знаменитой польской серии о приключениях озорных друзей Болека и Лелека. Наступает время каникул, и неугомонные приятели отправляются в путь, на поиски новых приключений…

Качество: DVD5
Формат: DVD Video
Видео кодек: MPEG2
Аудио кодек: AC3
Видео: PAL 4:3 (720x576) VBR
Аудио: Polish (Dolby AC3, 2 ch, 384Kbps)
Субтитры: польские, немецкие, чешские, английские, французские, испансие
Содержание диска 1:
1. Первый день каникул / Pierwszy dzień wakacji
2. Браконьер / Kłusownik
3. Жираф / Żyrafa
4. Приключения в пустыне / Przygoda w pustyni
5. Клад / Skarb
6. Путешествие автостопом / Autostopowicze
7. Морское приключение / Morska przygoda
Содержание диска 2:
1. Лунапарк / Luna-park (1965)
2. За грибами / Grzybobranie (1965)
3. Ружье и удочка / Strzelba i wędka (1965)
4. Ненастоящий дедушка / Fałszywy dziadek (1965)
5. Игра в рыцарей / Zabawa w rycerza (1965)
6. На привале / Na biwaku (1965)
Title: Íîâûé òîì
Size: 3.86 Gb ( 4 048 304 KBytes ) - DVD-5
Enabled regions: 1, 2, 3, 4, 5, 6, 7, 8

VTS_01 :
Play Length: 00:00:09
Video: PAL 4:3 (720x576) VBR
Audio:
Polish (Dolby AC3, 2 ch)

VTS_02 :
Play Length: 01:03:52
Video: PAL 4:3 (720x576) VBR
Audio:
Polish (Dolby AC3, 2 ch)
Subtitles:
Polish
Deutsch
Czech(Ceske)
English
Francais
Espanol

VTS_03 :
Play Length: 00:00:10
Video: PAL 4:3 (720x576) VBR
Subtitles:
Polish
Deutsch
Czech(Ceske)
English
Francais
Espanol

VTS_04 :
Play Length: 00:00:10
Video: PAL 4:3 (720x576) VBR
Subtitles:
Polish
Deutsch
Czech(Ceske)
English
Francais
Espanol

VTS_05 :
Play Length: 00:00:10
Video: PAL 4:3 (720x576) VBR
Subtitles:
Polish
Deutsch
Czech(Ceske)
English
Francais
Espanol

VTS_06 :
Play Length: 00:00:10
Video: PAL 4:3 (720x576) VBR
Subtitles:
Polish
Deutsch
Czech(Ceske)
English
Francais
Espanol

VTS_07 :
Play Length: 00:00:10
Video: PAL 4:3 (720x576) VBR
Subtitles:
Polish
Deutsch
Czech(Ceske)
English
Francais
Espanol

VTS_08 :
Play Length: 00:00:10
Video: PAL 4:3 (720x576) VBR
Subtitles:
Polish
Deutsch
Czech(Ceske)
English
Francais
Espanol
Общее
Полное имя : E:\Bolek i Lelek\Kanikuly Boleka i Leleka 1\VIDEO_TS\VTS_02_2.VOB
Формат : MPEG-PS
Размер файла : 1024 Мбайт
Продолжительность : 16 м.
Режим общего битрейта : Переменный
Общий поток : 8517 Кбит/сек

Видео
Идентификатор : 224 (0xE0)
Формат : MPEG Video
Версия формата : Version 2
Профиль формата : Main@Main
Параметр BVOP формата : Да
Параметр матрицы формата : Выборочная
Параметр GOP формата : M=3, N=15
Продолжительность : 16 м.
Вид битрейта : Переменный
Битрейт : 8000 Кбит/сек
Ширина : 720 пикселей
Высота : 576 пикселей
Соотношение сторон : 4:3
Частота кадров : 25,000 кадров/сек
Стандарт вещания : PAL
Цветовое пространство : YUV
Субдискретизация насыщенности : 4:2:0
Битовая глубина : 8 бит
Тип развёртки : Чересстрочная
Порядок развёртки : Верхнее поле первое
Метод сжатия : С потерями
Бит/(Пиксели*Кадры) : 0.772
Размер потока : 957 Мбайт (93%)

Аудио
Идентификатор : 189 (0xBD)-128 (0x80)
Формат : AC-3
Формат/Информация : Audio Coding 3
Расширение режима : CM (complete main)
Параметр Endianness формата : Big
Режим смешивания : DVD-Video
Продолжительность : 16 м.
Вид битрейта : Постоянный
Битрейт : 384 Кбит/сек
Каналы : 2 канала
Расположение каналов : Front: L R
Частота : 48,0 КГц
Битовая глубина : 16 бит
Метод сжатия : С потерями
Задержка видео : -384 мс.
Размер потока : 46,2 Мбайт (5%)

Меню
Это чешское издание Bolek a Lolek na prázdninách 1.
Бонусы: В стране 1001-ночи / W krainie 1001 nocy (1969, Серия из цикла "Болек и Лелек - Вокруг света")
Папка в раздаче: Kanikuly Boleka i Leleka 1, Kanikuly Boleka i Leleka 2
Скриншоты:
· Была выпущена жевательная резинка «Bolek i Lolek» с серией «вкладышей», содержащих фрагменты из мультфильма, которые представляли большую коллекционную ценность для советских детей.

· Улицы некоторых городов Польши (Ольштын, Зелёна-Гура, Квидзын, Острув-Велькопольский) названы в честь этих персонажей.

· Был единственным иностранным анимационным фильмом, допущенным на иранское телевидение после революции 1979 года.

· Прототипами главных героев послужили сыновья режиссёра Владислава Нехребецкого Ян и Роман.

Скриншоты:

Время раздачи: 24/7, круглосуточно, до 10 скачавших
Все релизы Болек и Лёлек на NNM-CLUB
[NNM-Club.me]_Bolek i Lelek.torrent
 Торрент: Платиновая раздача  Зарегистрирован
 
Скачать


Примагнититься
 Зарегистрирован:   10 Окт 2013 11:53:40
 Размер:   114 GB  (
 Рейтинг:   4,8 (Голосов: 150)
 Поблагодарили:   329
 Проверка:   Оформление проверено модератором 21 Окт 2013 20:48:26
Как cкачать  ·  Как раздать  ·  Правильно оформить  ·  Поднять ратио!  
MISCH​A-500​0​
Стаж: 4 года 2 мес.
Сообщений: 11
Ratio: 45,318
100%
:клево: :респект:
MISCH​A-500​0​
Стаж: 4 года 2 мес.
Сообщений: 11
Ratio: 45,318
100%
Спасибо. Это будет полное издание?
almikl ®
Куратор Детского.
Модератор Видео.
RG Всё лучшее - детям!
Uploader 300+
 
Стаж: 10 лет 5 мес.
Сообщений: 4246
Ratio: 239,985
Поблагодарили: 79011
100%
Откуда: Дааалекое Подмо​сковь​е​
russia.gif
MISCHA-5000
как можно более полное
все что найдется на просторах интернета =)
MISCH​A-500​0​
Стаж: 4 года 2 мес.
Сообщений: 11
Ratio: 45,318
100%
:респект:
Жан Габен
Стаж: 5 лет 10 мес.
Сообщений: 565
Ratio: 1528,247
Поблагодарили: 7509
100%

_________________
Belros
Стаж: 6 лет 4 мес.
Сообщений: 543
Ratio: 7,786
100%
ussr.gif
RedHoll
Стаж: 4 года 7 мес.
Сообщений: 21
Ratio: 5,806
24.33%
Другу когда-то этот мультфильм был нужен.Жаль в тот раз ему этот релиз не попался.Автор потрудился,но скачивать не буду.

_________________
Доброе утро клавиатура! Хочешь кофе?
hzero08
Стаж: 10 лет 9 мес.
Сообщений: 200
Ratio: 3,214
Поблагодарили: 546
2.61%
поменьше размер будет(?
Syrax
Стаж: 8 лет 4 мес.
Сообщений: 12
Ratio: 31,322
Раздал: 1,292 TB
81.23%
russia.gif
almikl
Скажите, будет ли от Вас рип? И если да, то примерно как скоро? Просто DVD формат не удобен для просмотра...
zhora82
Стаж: 9 лет 6 мес.
Сообщений: 7
Ratio: 2,501
40.55%
ukraine.gif
Syrax писал(а): Перейти к сообщению
almikl
Скажите, будет ли от Вас рип? И если да, то примерно как скоро? Просто DVD формат не удобен для просмотра...

очень хороший вопрос,
сделайте пожалуйста рип
Vredi​na-sa​ma​
Стаж: 7 лет 5 мес.
Сообщений: 255
Ratio: 9,912
Поблагодарили: 575
100%
Откуда: Росто​в-на-​Дону​
ussr.gif
Один из любимых мультфильмов детства. Песенку и сейчас помню. =)

_________________
rsg05
Стаж: 4 года 7 мес.
Сообщений: 18
Ratio: 5,95
Поблагодарили: 65
0.15%
Откуда: Родина Калаша
russia.gif
Есть Rip весом 16.31 GB, все 155 серий но на другом сайте, кому надо стучите в личку.
Dizel_Live
Стаж: 8 лет
Сообщений: 100
Ratio: 69,241
Раздал: 47,19 TB
Поблагодарили: 455
100%
Откуда: Москва
russia.gif
ради такой вещи подчистил хард (было 8гб свободно :D )
almikl ®
Куратор Детского.
Модератор Видео.
RG Всё лучшее - детям!
Uploader 300+
 
Стаж: 10 лет 5 мес.
Сообщений: 4246
Ratio: 239,985
Поблагодарили: 79011
100%
Откуда: Дааалекое Подмо​сковь​е​
russia.gif
Насчет рипа в [H.264] я подумаю..
А тем кто хочет рип прямо сейчас - идут и по ссылке и радуются
Болек и Лелек. Сборник / Bolek i Lolek (1964 - 1986) DVDRip/TVRip
:супер!: :подмигивание:
Показать сообщения:   
Начать новую тему   Ответить на тему    Торрент-трекер NNM-Club -> Мультфильмы -> Зарубежные Мультсериалы Часовой пояс: GMT + 3
Страницы:  1, 2  След.
Страница 1 из 2