Интеллигентный торрент-трекер
canvas not supported
Нас вместе: 4 271 139

Путешествия Жюля Верна / The Extraordinary Adventures of Jules Verne (2012) SATRip (24 серии)


 
 
RSS
Начать новую тему   Ответить на тему    Торрент-трекер NNM-Club -> Мультфильмы -> Зарубежные Мультсериалы
Автор Сообщение
ralm ®
Стаж: 6 лет 3 мес.
Сообщений: 6
Ratio: 30,759
Поблагодарили: 293
8.03%
Путешествия Жюля Верна / The Extraordinary Adventures of Jules Verne (2012) SATRip (24 серии)
Жанр: Приключения, Детский, Семейный
Язык: Русский

Режиссер: Энрико Паолантонио

Описание:
Что если все истории и приключения, которые описал в своих романах великий Жюль Верн, случились с ним на самом деле? Необычайные приключения Жюля Верна произошли с ним в молодости, когда он, полный энтузиазма и мечтаний, поставил себе целью исследовать и описать весь мир. Молодой Верн намеревался совершить путешествие к центру Земли, кругосветное путешествие за 80 дней, исследовать неизвестные острова. В те времена не было таких идей, которые бы показались ему несбыточными, или задач, которые могли бы его отпугнуть. Естественно, все свои невероятные путешествия он совершил не в одиночку. Рядом с ним всегда были его верные спутники: очаровательная подруга Амели, журналист Артемиус Люкас, педантичный бухгалтер Де Ленюи и бессменная повариха Эстер. Четвероногие талисманы компании — отважный пёс Гаттерас и озорной лемур София — также всегда сопровождали героев в их путешествиях. Однажды на пути исследователей повстречается таинственный и опасный человек, именующий себя Капитаном Немо. Узнав, что он разработал ужасный план покорения мира, Жюль Верн и его товарищи сделают все, чтобы остановить злодея. Согласно сюжету мультсериала, все эти удивительные события и истории впоследствии вдохновят Жюля Верна на написание его знаменитых романов.

Продолжительность: 24 x ~ 00:24:50
Качество видео: SATRip
Перевод: Дублированный

Видеокодек: Xvid
Битрейт видео: ~1 500 Kbps
Размер кадра: 720x400
Аудиокодек: AC3, 48000Hz, stereo, 2 channels
Битрейт аудио: 192kbps
Видео
Идентификатор : 0
Формат : MPEG-4 Visual
Профиль формата : Advanced Simple@L5
Параметр BVOP формата : 2
Параметр QPel формата : Нет
Параметр GMC формата : Без точки перехода
Параметр матрицы формата : Default (H.263)
Идентификатор кодека : XVID
Идентификатор кодека/Подсказка : XviD
Продолжительность : 24 м.
Битрейт : 1500 Кбит/сек
Ширина : 720 пикселей
Высота : 400 пикселей
Соотношение сторон : 16:9
Частота кадров : 25,000 кадров/сек
Цветовое пространство : YUV
Субдискретизация насыщенности : 4:2:0
Битовая глубина : 8 бит
Тип развёртки : Прогрессивная
Метод сжатия : С потерями
Бит/(Пиксели*Кадры) : 0.208
Размер потока : 266 Мбайт (88%)
Библиотека кодирования : XviD 1.2.1 (UTC 2008-12-04)

Аудио
Идентификатор : 1
Формат : AC-3
Формат/Информация : Audio Coding 3
Расширение режима : CM (complete main)
Параметр Endianness формата : Big
Идентификатор кодека : 2000
Продолжительность : 24 м.
Вид битрейта : Постоянный
Битрейт : 192 Кбит/сек
Каналы : 2 канала
Расположение каналов : Front: L R
Частота : 48,0 КГц
Битовая глубина : 16 бит
Метод сжатия : С потерями
Размер потока : 34,1 Мбайт (11%)
Выравнивание : Разделение по промежуткам
Продолжительность промежутка : 40 мс. (1,00 видеокадр)
Время предзагрузки промежутка : 500 мс.
01. Южная Африка
02. Наутилус
03. Скала Обана
04. Школа выживания
05. Луна
06. Гибралтар
07. На царской земле
08. Золотой метеор
09. Карпаты
10. Вокруг света
11. Чарльстон
12. Альбатрос
13. Река Нигер
14. Река Амазонка
15. Полярный Сфинкс
16. Центр Земли
17. Сахара
18. Таинственный остров
19. Бенгальский залив
20. Старая шахта
21. Гора Эйри
22. Золотая гора
23. Ченслер
24. Сокровище Камиль Паши
Скриншоты:


Время раздачи: с 10:00 до 18:00
[NNM-Club.me]_Puteshestviya ZHyulya Verna.2012.XviD.SATRip.torrent
 Торрент: Платиновая раздача  Зарегистрирован
 
Скачать


Примагнититься
 Зарегистрирован:   10 Июн 2014 10:58:53
 Размер:   7,21 GB  (
 Рейтинг:   4,9 (Голосов: 84)
 Поблагодарили:   293
 Проверка:   Оформление проверено модератором 10 Июн 2014 22:55:57
Как cкачать  ·  Как раздать  ·  Правильно оформить  ·  Поднять ратио!  
enior
Стаж: 7 лет 2 мес.
Сообщений: 123
Ratio: 6,924
23.28%
russia.gif
Что за мульт? Интересный?!
На Кинопоиске нет...

_________________
После расселения человечества по другим планетам и искусственно созданным объектам Солнечной системы, господствующим станет тип организма, не нуждающийся в атмосфере и «питающийся непосредственно солнечной энергией». К.Циолковский
ralm ®
Стаж: 6 лет 3 мес.
Сообщений: 6
Ratio: 30,759
Поблагодарили: 293
8.03%
enior писал(а): Перейти к сообщению
Что за мульт? Интересный?!
На Кинопоиске нет...


Мой сынятина а ему 5,5 смотрит с удовольствием, ради него нашел, скачал и сюда выложил, так как нравится этот трекер.
olegm​ovcha​n​
Стаж: 5 лет 10 мес.
Сообщений: 12
Ratio: 95,964
100%
russia.gif
У меня дочь 9 лет посмотрела несколько серий тоже с удовольствием. Правда седьмую серию про Россию смотрела с ухмылкой. :) Спасибо за раздачу!
chaijka
RG Всё лучшее - детям!
 
Стаж: 6 лет
Сообщений: 46
Ratio: 3150,192
Поблагодарили: 1983
100%
Хотелось бы знать, когда появятся две последние серии?
Vkhllem
Стаж: 6 лет
Сообщений: 364
Ratio: 39,761
52.7%
russia.gif
Благодарю товарищ,ознакомимся. Листал раздачи,хорошо что наткнулся!

П.С Надо как-то кинопоиску сообщить что у них нет информации, как это делается?
van_d​er_al​ex​
Стаж: 5 лет 4 мес.
Сообщений: 23
Ratio: 10,732
0.45%
Хороший сериал, побольше бы таких, кто знает что есть похожее?
Показать сообщения:   
Начать новую тему   Ответить на тему    Торрент-трекер NNM-Club -> Мультфильмы -> Зарубежные Мультсериалы Часовой пояс: GMT + 3
Страница 1 из 1