Интеллигентный торрент-трекер
canvas not supported
Нас вместе: 4 303 019

Мия и Я / Mia and Me (2011) SATRip (Сезон 1, Серии 1-26 из 26)


 
 
RSS
Начать новую тему   Ответить на тему    Торрент-трекер NNM-Club -> Мультфильмы -> Зарубежные Мультсериалы
Автор Сообщение
TRAY_MAX ®
Стаж: 7 лет 3 мес.
Сообщений: 138
Ratio: 60,425
Поблагодарили: 4277
100%
Откуда: Ярославль
russia.gif
Мия и Я / Mia and Me (2011) SATRip (Сезон 1, Серии 1-26 из 26)
Производство: Нидерланды, Германия, Италия, Канада / Lucky Punch, March Entertainment, Rainbow S.r.l
Жанр: Детский, Фентези, Анимация
Год выпуска: 2011
Перевод: Профессиональный (дублированный)

Рейтинг (РФ): для детей старше 6 лет

Режиссёр: Андреа Де Сика / Andrea De Sica,
Автор перевода: Студия Русский Дубляж

Описание: Мия - главная героиня сериала - обычная итальянская школьница. Её тётя отдает девочку в элитную итальянскую школу-интернат. Родители Мии погибли в автокатастрофе. В первый школьный день Мия получает от тети подарок на День Рождения, который ей хотели подарить родители. Подарком является книга об удивительной стране Сентопии, которую Мии в детстве читал отец. Вместе с книгой Мия получает таинственный браслет, который каким-то необъяснимым способом способен отправить Мию в удивительную страну. С этого момента начинаются удивительные приключения Мии в Сентопии, её ждут новые друзья и враги.

Продолжительность: 26 x ~ 00:24:00
Семпл: скачать тут

Качество: SATRip
Формат: AVI
Видео: MPEG4, DivX 5(Xvid), 720x400 (16:9), 25.000 fps, 1 801 Kbps (0.250 bit/pixel)
Аудио: AC-3 Dolby Digital, 48.0 KHz, 2 ch, 192 Kbps, CBR
Субтитры: отсутствуют
Данный рип пойдет на обычных DVD-плеерах.
Подготовка, запись, кодирование - TRAY_MAX

General
Complete name : D:\ГлВремПапка\Mia.and.Me.S01.VHQSATRip.Rus\Mia.and.Me.S01EP01.Talking.To.Unicorns.VHQSATRip.Rus.avi
Format : AVI
Format/Info : Audio Video Interleave
File size : 339 MiB
Duration : 23mn 41s
Overall bit rate : 2 002 Kbps
Movie name : Mia.and.Me.S01EP01 - Разговор С Единорогами
Director : Rip ByTRAY_MAX
Genre : Детский / Анимация
Recorded date : 2011
Writing application : VirtualDubModRus 1.5.10.2 (build 2540/release) VirtualDubMod build 2540/release
Original source form/Name : Mia and Me
Copyright : Lucky Punch, Zweites Deutsches Fernsehen, Rainbow, March Entertainment, Rai Fiction.

Video
ID : 0
Format : MPEG-4 Visual
Format profile : Advanced Simple@L5
Format settings, BVOP : 1
Format settings, QPel : No
Format settings, GMC : No warppoints
Format settings, Matrix : Default (H.263)
Codec ID : DX50
Codec ID/Hint : DivX 5
Duration : 23mn 41s
Bit rate : 1 801 Kbps
Width : 720 pixels
Height : 400 pixels
Display aspect ratio : 16:9
Frame rate : 25.000 fps
Color space : YUV
Chroma subsampling : 4:2:0
Bit depth : 8 bits
Scan type : Progressive
Compression mode : Lossy
Bits/(Pixel*Frame) : 0.250
Stream size : 305 MiB (90%)
Writing library : XviD 1.2.1 (UTC 2008-12-04)

Audio
ID : 1
Format : AC-3
Format/Info : Audio Coding 3
Format profile : Dolby Digital
Mode extension : CM (complete main)
Format settings, Endianness : Big
Codec ID : 2000
Duration : 23mn 41s
Bit rate mode : Constant
Bit rate : 192 Kbps
Channel count : 2 channels
Channel positions : Front: L R
Sampling rate : 48.0 KHz
Bit depth : 16 bits
Compression mode : Lossy
Stream size : 32.5 MiB (10%)
Alignment : Split accross interleaves
Interleave, duration : 40 ms (1.00 video frame)
Interleave, preload duration : 500 ms
Language : Русский

01 - Разговор С Единорогами
02 - Надежда Сентопии
03 - Восстановление
04 - Трубатус Потерян
05 - Золотой Сын
06 - Оазис Ончо
07 - Рождение Надежды
08 - Выходной Зигго
09 - Эльфы И Драконы
10 - Дерево Цветов
11 - Все, Что Блестит
12 - Недостаток Фадла
13 - Огненный Единорог
14 - Высохший Лес
15 - Мисс Всезнайка
16 - Ловушка Для Единорога
17 - Наряды
18 - Король На Один День
19 - Дудочник
20 - Пещера Правды
21 - В Борьбе С Ветром
22 - Под Луной
23 - На Чьей Ты Стороне
24 - Слезы Радости
25 - Предложение Пантеи
26 - Конец Эпохи
Скриншоты:


Все раздачи мультсериала на NNM-club
[NNM-Club.me]_Mia.and.Me.S01.SATRip.Rus.torrent
 Торрент: Платиновая раздача  Зарегистрирован
 
Скачать


Примагнититься
 Зарегистрирован:   13 Июл 2014 23:30:28
 Размер:   8,5 GB  (
 Рейтинг:   4,7 (Голосов: 63)
 Поблагодарили:   225
 Проверка:   Оформление проверено модератором 14 Июл 2014 17:03:24
Как cкачать  ·  Как раздать  ·  Правильно оформить  ·  Поднять ратио!  

_________________
Администратор релиз группы MoRwY-Dub (Magic on Russian with You)
Оксан​а_101​0​
Стаж: 6 лет 8 мес.
Сообщений: 6
Ratio: 3,453
42.46%
Откуда: Санкт​-Пете​рбург​
russia.gif
Спасибо! Наконец появился любимый мульт дочки на русском языке!
vasiatka
Стаж: 3 года 7 мес.
Сообщений: 2
Ratio: 115,828
100%
Ребята выложите второй сезон пожалуйста.
Показать сообщения:   
Начать новую тему   Ответить на тему    Торрент-трекер NNM-Club -> Мультфильмы -> Зарубежные Мультсериалы Часовой пояс: GMT + 3
Страница 1 из 1